<?xml version="1.0" standalone="no"?>
<!DOCTYPE svg PUBLIC "-//W3C//DTD SVG 1.1//EN" "http://www.w3.org/Graphics/SVG/1.1/DTD/svg11.dtd" >
<svg xmlns="http://www.w3.org/2000/svg" xmlns:xlink="http://www.w3.org/1999/xlink" version="1.1">
<metadata>
Created by FontForge 20170731 at Wed Sep 20 01:00:59 2017
 By Aleksey,,,
Copyright 2016 Google Inc. All Rights Reserved.
</metadata>
<defs>
<font id="NotoSansThai-Light" horiz-adv-x="0" >
  <font-face 
    font-family="Noto Sans Thai Light"
    font-weight="300"
    font-stretch="normal"
    units-per-em="1000"
    panose-1="2 11 4 2 4 5 4 2 2 4"
    ascent="800"
    descent="-200"
    bbox="-676 -423 841 995"
    underline-thickness="50"
    underline-position="-175"
    unicode-range="U+000D-25CC"
  />
<missing-glyph horiz-adv-x="364" 
d="M33 0v666h265v-666h-265zM66 33h199v600h-199v-600z" />
    <glyph glyph-name="ru_lakkhangyao-thai" unicode="&#xe24;&#xe45;" horiz-adv-x="926" 
d="M444 -196v558q0 73 -45 109.5t-115 36.5t-112 -32t-42 -78l114 -53l-6 -39q-39 -3 -66.5 -26.5t-27.5 -76.5v-117q0 -26 11.5 -36.5t32.5 -10.5q23 0 42 7l10 -43q-15 -7 -31.5 -10t-30.5 -3q-36 0 -63.5 19t-27.5 69v124q0 62 28.5 89t70.5 38v3l-114 44v26q0 40 25 75
t73.5 57.5t117.5 22.5q75 0 121.5 -29t65.5 -77h3q18 50 65 78t112 28q86 0 135.5 -47.5t49.5 -133.5v-572h-58v564q0 73 -38 106.5t-99 33.5q-64 0 -103.5 -36t-39.5 -107v-561h-58z" />
    <glyph glyph-name="lu_lakkhangyao-thai" unicode="&#xe26;&#xe45;" horiz-adv-x="928" 
d="M446 -196v558q0 73 -45.5 109.5t-115.5 36.5t-111.5 -32t-41.5 -78l114 -53l-8 -39q-38 -3 -62 -26.5t-24 -77.5v-127q0 -49 -20.5 -67t-51.5 -18q-30 0 -55 12l8 42q7 -2 15 -4t16 -2q18 0 24.5 10t6.5 33v122q0 61 24.5 88.5t66.5 37.5l2 3l-116 44v26q0 40 25.5 75
t74 57.5t116.5 22.5q76 0 122 -29t66 -77h4q17 50 63.5 78t112.5 28q86 0 135.5 -47.5t49.5 -133.5v-572h-57v564q0 73 -39 106.5t-99 33.5q-64 0 -103.5 -36t-39.5 -107v-561h-57z" />
    <glyph glyph-name=".notdef" horiz-adv-x="364" 
d="M33 0v666h265v-666h-265zM66 33h199v600h-199v-600z" />
    <glyph glyph-name=".null" 
 />
    <glyph glyph-name="nonmarkingreturn" horiz-adv-x="333" 
 />
    <glyph glyph-name="NULL" 
 />
    <glyph glyph-name="NULL" 
 />
    <glyph glyph-name="CR" unicode="&#xd;" horiz-adv-x="260" 
 />
    <glyph glyph-name="space" unicode=" " horiz-adv-x="260" 
 />
    <glyph glyph-name="hyphen" unicode="-" horiz-adv-x="322" 
d="M40 244v52h242v-52h-242z" />
    <glyph glyph-name="uni00A0" unicode="&#xa0;" horiz-adv-x="260" 
 />
    <glyph glyph-name="uni02BC" unicode="&#x2bc;" horiz-adv-x="151" 
d="M122 714l6 -10q-10 -57 -31 -119.5t-43 -115.5h-41q11 37 22 80t19 86t12 79h56z" />
    <glyph glyph-name="uni02D7" unicode="&#x2d7;" horiz-adv-x="218" 
d="M206 254h-194v44h194v-44z" />
    <glyph glyph-name="tildecomb" unicode="&#x303;" 
d="M-120 726q-4 -54 -29.5 -84t-65.5 -30q-22 0 -40 10t-34.5 23t-32.5 23t-34 10q-20 0 -35 -14t-19 -52h-38q5 54 30 83.5t66 29.5q22 0 40 -10t34.5 -23t32.5 -23t33 -10q20 0 35 14.5t21 52.5h36z" />
    <glyph glyph-name="uni0331" unicode="&#x331;" 
d="M-120 -89v-47h-262v47h262z" />
    <glyph glyph-name="uni0E01" unicode="&#xe01;" horiz-adv-x="590" 
d="M82 0v201q0 61 29.5 89t72.5 39v3l-112 44v26q0 40 25.5 75t74 57.5t116.5 22.5q60 0 109 -20t77.5 -61.5t28.5 -103.5v-372h-57v364q0 75 -45 109.5t-114 34.5q-73 0 -114.5 -32t-41.5 -78l111 -53l-7 -39q-38 -3 -67 -27t-29 -77v-202h-57z" />
    <glyph glyph-name="uni0E02" unicode="&#xe02;" horiz-adv-x="540" 
d="M270 -10q-87 0 -137.5 43t-50.5 132v73q0 49 14.5 77.5t35.5 54.5t33.5 45t12.5 44q0 26 -14 36.5t-32 10.5q-16 0 -32 -5.5t-26 -10.5l-14 44q16 10 38.5 15t43.5 5q42 0 67 -22.5t25 -67.5q0 -35 -15 -60t-35 -50q-20 -27 -32 -51t-12 -63v-72q0 -72 36.5 -100.5
t93.5 -28.5q64 0 95 29.5t31 84.5v395h58v-398q0 -76 -47.5 -118t-136.5 -42z" />
    <glyph glyph-name="uni0E03" unicode="&#xe03;" horiz-adv-x="540" 
d="M265 -10q-88 0 -136.5 43t-48.5 133v74q0 51 21 83.5t47 60.5q22 26 32 41.5t12 36.5l-4 2q-10 -9 -25 -16t-35 -7q-34 0 -56 21.5t-22 65.5v20h51q0 -38 10.5 -52.5t33.5 -14.5q13 0 26 4.5t25 16.5l14 46h34v-53q0 -31 -3.5 -51t-14 -38t-30.5 -42q-16 -20 -29 -37
t-21 -38t-8 -53v-68q0 -74 36 -101.5t92 -27.5q64 0 97 29.5t33 84.5v395h58v-398q0 -76 -49 -118t-140 -42z" />
    <glyph glyph-name="uni0E04" unicode="&#xe04;" horiz-adv-x="608" 
d="M86 0v360q0 94 55 145.5t163 51.5t163 -51.5t55 -145.5v-360h-58v358q0 74 -42 112t-118 38t-118 -38t-42 -112v-129l3 -1q21 37 56 54t94 17h43v-49h-42q-81 0 -117.5 -35.5t-36.5 -93.5v-121h-58z" />
    <glyph glyph-name="uni0E05" unicode="&#xe05;" horiz-adv-x="614" 
d="M86 0v426q0 68 33 99.5t89 31.5q37 0 63 -15t34 -42h4q8 27 34.5 42t62.5 15q56 0 89 -31.5t33 -99.5v-426h-58v423q0 47 -20 66t-52 19q-64 0 -72 -66h-40q-6 66 -72 66q-30 0 -50.5 -19t-20.5 -66v-194l3 -1q21 37 57 54t96 17h43v-49h-42q-82 0 -119 -35.5t-37 -93.5
v-121h-58z" />
    <glyph glyph-name="uni0E06" unicode="&#xe06;" horiz-adv-x="592" 
d="M322 -10q-70 0 -117.5 29t-68.5 77h-4l-5 -96h-48v236q0 51 20.5 85t47.5 63q26 28 36.5 43t10.5 35l-2 2q-10 -9 -25.5 -16t-36.5 -7q-33 0 -55 21.5t-22 65.5v20h51q0 -38 10.5 -52.5t33.5 -14.5q12 0 25 4.5t26 16.5l13 46h35v-53q0 -29 -4.5 -48.5t-15.5 -38
t-31 -44.5q-18 -21 -31.5 -39t-21 -39.5t-7.5 -52.5v-19q0 -76 47.5 -125t127.5 -49q65 0 101 35t36 103v370h58v-375q0 -94 -51 -138.5t-133 -44.5z" />
    <glyph glyph-name="uni0E07" unicode="&#xe07;" horiz-adv-x="530" 
d="M178 0l-169 548h58l155 -497h14q30 0 56.5 11.5t48.5 31.5q36 33 53.5 89t17.5 118q0 95 -40.5 149t-116.5 54q-13 0 -26 -2.5t-21 -5.5l-14 48q16 5 33 7t31 2q50 0 88 -16t64 -45q32 -34 46 -84t14 -110q0 -80 -23.5 -142t-64.5 -99q-28 -26 -68.5 -41.5t-96.5 -15.5
h-39z" />
    <glyph glyph-name="uni0E08" unicode="&#xe08;" horiz-adv-x="525" 
d="M158 0v260h-74v47h130v-259h14q52 0 90 21.5t59 71t21 135.5q0 126 -42 179t-140 53q-46 0 -89.5 -13t-82.5 -37v56q28 16 76 29.5t104 13.5q128 0 181 -71t53 -212t-58 -207.5t-186 -66.5h-56z" />
    <glyph glyph-name="uni0E09" unicode="&#xe09;" horiz-adv-x="599" 
d="M268 -10q-80 0 -131 45t-51 137v141h58v-136q0 -65 35 -101t103 -36q80 0 126.5 48t46.5 128v112q0 100 -46.5 140t-134.5 40q-47 0 -92.5 -12t-86.5 -38v56q28 16 78 29.5t111 13.5q112 0 170 -53.5t58 -168.5v-335h-48l-4 90h-4q-22 -46 -69.5 -73t-118.5 -27z" />
    <glyph glyph-name="uni0E0A" unicode="&#xe0a;" horiz-adv-x="540" 
d="M269 -10q-89 0 -139 43t-50 132v73q0 50 15 78.5t35 53.5q21 25 33.5 44.5t12.5 43.5q0 27 -13.5 37.5t-34.5 10.5q-14 0 -29 -5t-25 -10l-14 43q16 10 38.5 15t42.5 5q41 0 66 -22.5t25 -66.5q0 -37 -15 -61.5t-35 -49.5q-20 -27 -32 -51t-12 -63v-72q0 -72 36.5 -100.5
t94.5 -28.5q63 0 94 29.5t31 84.5v152q0 41 -22 62t-59 21h-10v39h11q38 0 57.5 17.5t26 45.5t6.5 58h57q0 -56 -15.5 -90t-57.5 -50v-4q40 -12 52 -39.5t12 -58.5v-156q0 -76 -47 -118t-136 -42z" />
    <glyph glyph-name="uni0E0B" unicode="&#xe0b;" horiz-adv-x="546" 
d="M270 -10q-88 0 -137 43t-49 133v74q0 51 19 83.5t45 60.5q21 26 31.5 41.5t12.5 36.5l-4 2q-10 -9 -25 -16t-35 -7q-34 0 -56 21.5t-22 65.5v20h51q0 -39 10.5 -53t34.5 -14q13 0 26 5t24 16l14 46h34v-53q0 -31 -3.5 -51t-14 -38t-30.5 -42q-26 -30 -40 -54.5t-14 -67.5
v-74q0 -74 36 -101.5t92 -27.5q64 0 97 29.5t33 84.5v152q0 41 -22 62t-60 21h-10v39h12q38 0 57 17.5t25.5 45.5t6.5 58h57q0 -56 -16 -89.5t-58 -48.5v-4q38 -13 52 -40t14 -65v-151q0 -76 -49.5 -118t-138.5 -42z" />
    <glyph glyph-name="uni0E0C" unicode="&#xe0c;" horiz-adv-x="898" 
d="M193 -8q-43 0 -74.5 21.5t-31.5 78.5v110q0 62 28.5 89t70.5 38v3l-114 44v26q0 42 25 77t71 56.5t110 21.5q55 0 101.5 -19t74.5 -60t28 -106v-160q0 -50 20 -89t55 -61t80 -22q55 0 86 32t31 96v380h58v-386q0 -90 -46 -131t-119 -41q-58 0 -101 27t-64 74h-4l-4 -91
h-49v364q0 52 -19.5 84t-53.5 46t-75 14q-65 0 -105.5 -30t-41.5 -80l114 -53l-6 -39q-39 -3 -66.5 -26.5t-27.5 -76.5v-106q0 -30 15.5 -43.5t42.5 -13.5q26 0 48 8l9 -43q-17 -7 -33 -10t-33 -3z" />
    <glyph glyph-name="uni0E0D" unicode="&#xe0d;" horiz-adv-x="904" 
d="M601 -161q-41 0 -81 8.5t-74 24.5v58q32 -20 73 -30t81 -10q43 0 77 13.5t54 47t20 92.5v44h-4q-22 -37 -62.5 -62t-101.5 -25q-72 0 -117 41t-45 131v192q0 54 -19.5 85.5t-52.5 45t-74 13.5q-64 0 -104 -29.5t-41 -80.5l114 -53l-6 -39q-39 -3 -66.5 -26.5t-27.5 -76.5
v-106q0 -30 15.5 -43.5t42.5 -13.5q26 0 48 8l9 -43q-17 -7 -33 -10t-33 -3q-43 0 -74.5 21.5t-31.5 78.5v110q0 62 28.5 89t70.5 38v3l-114 44v26q0 43 25 78t70.5 56t108.5 21q55 0 101 -19t73.5 -59.5t27.5 -106.5v-194q0 -64 31.5 -96t84.5 -32q46 0 81 22t55 61t20 89
v326h58v-506q0 -106 -55.5 -154.5t-151.5 -48.5z" />
    <glyph glyph-name="uni0E0E" unicode="&#xe0e;" horiz-adv-x="590" 
d="M104 -196v16q0 50 36 83t110 33q55 0 105.5 -19t90.5 -52v499q0 75 -44.5 109.5t-114.5 34.5q-73 0 -114 -32t-41 -78l114 -53l-8 -39q-38 -3 -62 -26.5t-24 -77.5v-126q0 -48 -21 -66t-52 -18q-27 0 -54 11l8 43q7 -2 15 -4t16 -2q18 0 24.5 10t6.5 32v121
q0 61 24.5 88.5t66.5 37.5l2 3l-116 44v26q0 40 25.5 75t74 57.5t116.5 22.5q61 0 110 -20t77.5 -61.5t28.5 -103.5v-568h-46q-20 19 -51 38t-68 32t-76 13q-52 0 -76.5 -21.5t-24.5 -52.5v-9h-58z" />
    <glyph glyph-name="uni0E0F" unicode="&#xe0f;" horiz-adv-x="590" 
d="M78 -196v20q0 48 29.5 75.5t74.5 27.5q44 0 71.5 -21t42.5 -50l75 66l75 -61v503q0 75 -44.5 109.5t-114.5 34.5q-73 0 -114 -32t-41 -78l114 -53l-8 -39q-38 -3 -62 -26.5t-24 -77.5v-126q0 -48 -21 -66t-52 -18q-27 0 -54 11l8 43q7 -2 15 -4t16 -2q18 0 24.5 10
t6.5 32v121q0 61 24.5 88.5t66.5 37.5l2 3l-116 44v26q0 40 25.5 75t74 57.5t116.5 22.5q61 0 110 -20t77.5 -61.5t28.5 -103.5v-568h-52l-80 66l-72 -66h-17q-15 31 -37.5 53.5t-55.5 22.5q-30 0 -43.5 -20t-13.5 -46v-10h-55z" />
    <glyph glyph-name="uni0E10" unicode="&#xe10;" horiz-adv-x="540" 
d="M154 0v260h-74v47h130v-259h14q52 0 90 21.5t59 71t21 135.5q0 126 -42 179t-140 53q-46 0 -89.5 -13t-82.5 -37v56q28 16 76 29.5t104 13.5q101 0 150 -46q28 7 48 24.5t20 48.5h58q0 -42 -27 -68.5t-68 -37.5q28 -34 40.5 -85t12.5 -119q0 -141 -58 -207.5t-186 -66.5
h-56zM54 -196v20q0 48 27 75t69 27q40 0 65 -20.5t41 -48.5l67 65l71 -62v82h53v-138h-53l-71 66l-65 -66h-15q-15 30 -36 53t-49 23q-29 0 -40.5 -20t-11.5 -46v-10h-52z" />
    <glyph glyph-name="uni0E11" unicode="&#xe11;" horiz-adv-x="618" 
d="M100 0v232q0 58 10.5 89.5t32.5 57.5q19 23 29.5 36.5t14.5 23.5t5 23l-4 2q-10 -9 -25 -16t-35 -7q-34 0 -56 21.5t-22 65.5v20h52q0 -39 10 -53t32 -14q14 0 26 4.5t22 16.5l14 46h32v-73h5q30 40 66.5 61t84.5 21q69 0 103 -36.5t34 -96.5v-424h-57v411
q0 49 -24.5 72.5t-63.5 23.5q-46 0 -84.5 -30.5t-86.5 -90.5q-23 -28 -35 -49t-17 -46.5t-5 -67.5v-223h-58z" />
    <glyph glyph-name="uni0E12" unicode="&#xe12;" horiz-adv-x="894" 
d="M268 -10q-78 0 -121.5 34.5t-61 100t-17.5 156.5q0 105 17.5 165.5t48.5 85.5t72 25q39 0 61 -15.5t31 -42.5h4q20 58 92 58q114 0 114 -135v-210q0 -50 19.5 -89t54 -61t78.5 -22q57 0 88 32t31 96v380h57v-386q0 -90 -45.5 -131t-114.5 -41q-66 0 -108 29t-61 72h-4
l-4 -91h-49v423q0 47 -15 66t-50 19q-31 0 -46 -17t-21 -49h-38q-5 36 -21.5 51t-44.5 15t-47.5 -21t-30 -70t-10.5 -133q0 -82 12.5 -136.5t45 -81.5t92.5 -27q15 0 27 2t23 6l6 -45q-24 -12 -64 -12z" />
    <glyph glyph-name="uni0E13" unicode="&#xe13;" horiz-adv-x="904" 
d="M193 -8q-43 0 -74.5 21.5t-31.5 78.5v110q0 62 28.5 89t70.5 38v3l-114 44v26q0 43 25 78t70.5 56t108.5 21q55 0 101 -19t73.5 -59.5t27.5 -106.5v-204q0 -64 31.5 -96t90.5 -32q42 0 76 22t54 61t20 89v336h58v-548h-49l-4 91h-5q-20 -46 -63 -73.5t-99 -27.5
q-75 0 -121 41t-46 131v202q0 54 -19.5 85.5t-53 45t-74.5 13.5q-63 0 -103 -29.5t-41 -80.5l114 -53l-6 -39q-39 -3 -66.5 -26.5t-27.5 -76.5v-106q0 -30 15.5 -43.5t43.5 -13.5q25 0 47 8l9 -43q-17 -7 -33 -10t-33 -3z" />
    <glyph glyph-name="uni0E14" unicode="&#xe14;" horiz-adv-x="611" 
d="M267 -10q-76 0 -120 35t-62.5 98t-18.5 147q0 87 18 143t50 87.5t75.5 44t95.5 12.5q109 0 164 -47.5t55 -135.5v-374h-56v368q0 66 -38 103t-122 37q-54 0 -95.5 -19.5t-65 -71t-23.5 -148.5q0 -66 13 -118t46 -82t94 -30q28 0 49 8l8 -46q-14 -6 -32 -8.5t-35 -2.5z
" />
    <glyph glyph-name="uni0E15" unicode="&#xe15;" horiz-adv-x="629" 
d="M274 -10q-80 0 -125 36t-63 102t-18 155q0 101 18.5 161t52 86.5t79.5 26.5q40 0 64 -15.5t33 -42.5h4q20 58 98 58q125 0 125 -135v-422h-57v423q0 47 -20 66t-57 19q-34 0 -50.5 -17t-21.5 -49h-40q-4 36 -24 51t-48 15q-48 0 -73 -53t-25 -171q0 -80 13 -134.5
t47 -82.5t95 -28q17 0 31 2.5t26 5.5l6 -45q-12 -6 -31.5 -9t-38.5 -3z" />
    <glyph glyph-name="uni0E16" unicode="&#xe16;" horiz-adv-x="589" 
d="M193 -8q-43 0 -74.5 21.5t-31.5 78.5v110q0 62 28.5 89t70.5 38v3l-114 44v26q0 40 25 75t73 57.5t117 22.5q61 0 109.5 -20t77 -61.5t28.5 -103.5v-372h-57v364q0 75 -44.5 109.5t-114.5 34.5q-72 0 -114 -32t-42 -78l114 -53l-6 -39q-39 -3 -66.5 -24t-27.5 -74v-111
q0 -30 15.5 -43.5t43.5 -13.5q25 0 47 8l9 -43q-17 -7 -33 -10t-33 -3z" />
    <glyph glyph-name="uni0E17" unicode="&#xe17;" horiz-adv-x="608" 
d="M94 0v548h42l10 -94h4q21 50 69 76.5t114 26.5q83 0 135.5 -44.5t52.5 -138.5v-374h-57v370q0 68 -37 102.5t-105 34.5q-80 0 -125 -50.5t-45 -126.5v-330h-58z" />
    <glyph glyph-name="uni0E18" unicode="&#xe18;" horiz-adv-x="533" 
d="M268 -10q-56 0 -103.5 10t-80.5 23v231h54v-194q18 -8 55.5 -15t76.5 -7q41 0 75.5 10t55.5 36t21 72t-22.5 70t-63.5 38t-96 32q-60 19 -98 37t-55.5 41.5t-17.5 59.5q0 60 47.5 91.5t147.5 31.5q67 0 114 -11.5t70 -21.5v-54q-26 14 -78 26t-113 12q-55 0 -93 -14.5
t-38 -54.5q0 -38 41 -57.5t113 -41.5q57 -18 102 -37.5t71 -53t26 -93.5q0 -84 -53.5 -125t-157.5 -41z" />
    <glyph glyph-name="uni0E19" unicode="&#xe19;" horiz-adv-x="610" 
d="M273 -10q-82 0 -134.5 45t-52.5 139v374h58v-370q0 -68 37 -103t105 -35q79 0 124.5 48.5t45.5 129.5v330h58v-548h-50l-3 90h-5q-22 -46 -67.5 -73t-115.5 -27z" />
    <glyph glyph-name="uni0E1A" unicode="&#xe1a;" horiz-adv-x="598" 
d="M298 -10q-111 0 -161.5 53t-50.5 143v362h58v-361q0 -71 38.5 -109.5t115.5 -38.5q79 0 117.5 38.5t38.5 109.5v361h58v-362q0 -90 -51 -143t-163 -53z" />
    <glyph glyph-name="uni0E1B" unicode="&#xe1b;" horiz-adv-x="600" 
d="M298 -10q-111 0 -161.5 53t-50.5 143v362h58v-361q0 -71 38.5 -109.5t115.5 -38.5q79 0 117.5 38.5t38.5 109.5v558h58v-559q0 -90 -51 -143t-163 -53z" />
    <glyph glyph-name="uni0E1C" unicode="&#xe1c;" horiz-adv-x="644" 
d="M92 0v458q0 39 15 60.5t39 30t50 8.5q15 0 32.5 -3.5t27.5 -7.5l-8 -45q-21 7 -44 7q-27 0 -41.5 -13t-14.5 -45v-212q0 -32 -0.5 -68t-3.5 -79h4q18 40 36.5 72.5t34.5 59.5l83 139h36l83 -139q24 -41 40.5 -71t30.5 -61h4q-3 43 -3.5 79t-0.5 68v310h56v-548h-50
l-176 298h-4l-176 -298h-50z" />
    <glyph glyph-name="uni0E1D" unicode="&#xe1d;" horiz-adv-x="646" 
d="M92 0v458q0 39 15 60.5t39 30t50 8.5q15 0 32.5 -3.5t27.5 -7.5l-8 -45q-21 7 -44 7q-27 0 -41.5 -13t-14.5 -45v-212q0 -32 -0.5 -68t-3.5 -79h4q18 40 36.5 72.5t34.5 59.5l83 139h36l83 -139q24 -41 40.5 -71t30.5 -61h4q-3 43 -3.5 79t-0.5 68v507h57v-745h-51
l-176 298h-4l-176 -298h-50z" />
    <glyph glyph-name="uni0E1E" unicode="&#xe1e;" horiz-adv-x="688" 
d="M145 0l-98 548h59l50 -294q4 -26 10 -71t14 -100h4q14 55 28.5 105t23.5 79l86 281h44l86 -281q9 -29 23.5 -79t28.5 -105h4q6 55 12 100t11 71l51 294h60l-98 -548h-60l-108 337q-8 25 -15.5 53t-14.5 63h-4q-7 -35 -15 -63t-16 -53l-107 -337h-59z" />
    <glyph glyph-name="uni0E1F" unicode="&#xe1f;" horiz-adv-x="681" 
d="M145 0l-98 548h59l50 -294q2 -12 6 -40l9 -63t9 -68h4q10 44 25 94l27 90l86 281h44l86 -281q12 -40 26 -90t26 -94h4q5 53 11 98.5t9 72.5l69 491h57l-111 -745h-60l-107 337q-15 45 -30 116h-4q-8 -35 -15 -63t-15 -53l-108 -337h-59z" />
    <glyph glyph-name="uni0E20" unicode="&#xe20;" horiz-adv-x="590" 
d="M80 -8q-14 0 -28 2.5t-27 8.5l8 43q16 -7 31 -7q18 0 24.5 10.5t6.5 32.5v121q0 61 24.5 88.5t66.5 37.5l2 3l-116 44v26q0 40 25.5 75t74 57.5t116.5 22.5q61 0 110 -20t77.5 -61.5t28.5 -103.5v-372h-58v364q0 75 -44.5 109.5t-113.5 34.5q-74 0 -115 -32t-41 -78
l114 -53l-8 -39q-38 -3 -62 -26.5t-24 -77.5v-126q0 -49 -20.5 -66.5t-51.5 -17.5z" />
    <glyph glyph-name="uni0E21" unicode="&#xe21;" horiz-adv-x="610" 
d="M338 -10q-69 0 -116 28t-69 78h-4l-4 -96h-49v548h58v-330q0 -52 21.5 -92t60 -63t90.5 -23q68 0 104 35t36 103v370h58v-375q0 -94 -52 -138.5t-134 -44.5z" />
    <glyph glyph-name="uni0E22" unicode="&#xe22;" horiz-adv-x="588" 
d="M290 -9q-112 0 -162.5 46t-50.5 121q0 47 13.5 74.5t34 41.5t41.5 20v4q-19 6 -40.5 19.5t-36.5 39t-15 67.5q0 55 38 93t112 38q24 0 47.5 -3.5t38.5 -9.5l-10 -46q-11 3 -29.5 6.5t-38.5 3.5q-45 0 -72.5 -22t-27.5 -66q0 -40 19.5 -61.5t49 -30t59.5 -8.5h30v-43h-30
q-60 0 -92 -27.5t-32 -83.5q0 -59 38 -91.5t116 -32.5q75 0 114.5 32.5t39.5 104.5v371h58v-365q0 -101 -54 -146.5t-158 -45.5z" />
    <glyph glyph-name="uni0E23" unicode="&#xe23;" horiz-adv-x="480" 
d="M234 -10q-57 0 -105.5 11.5t-82.5 26.5l18 48q32 -14 78 -25.5t96 -11.5q62 0 101 24.5t39 72.5q0 50 -38 74.5t-100 45.5q-60 20 -102 41t-64.5 50.5t-22.5 74.5q0 60 48 97.5t146 37.5q49 0 93 -9.5t67 -22.5v-51q-25 13 -70 23.5t-92 10.5q-68 0 -101.5 -23t-33.5 -59
q0 -31 19 -51t55 -35.5t86 -33.5q46 -16 84 -36t60.5 -50t22.5 -79q0 -66 -47.5 -108.5t-153.5 -42.5z" />
    <glyph glyph-name="uni0E24" unicode="&#xe24;" horiz-adv-x="589" 
d="M193 -8q-43 0 -74.5 21.5t-31.5 78.5v110q0 62 28.5 89t70.5 38v3l-114 44v26q0 40 25 75t73 57.5t117 22.5q61 0 109.5 -20t77 -61.5t28.5 -103.5v-568h-57v560q0 75 -44.5 109.5t-114.5 34.5q-72 0 -114 -32t-42 -78l114 -53l-6 -39q-39 -3 -66.5 -24t-27.5 -74v-111
q0 -30 15.5 -43.5t43.5 -13.5q25 0 47 8l9 -43q-17 -7 -33 -10t-33 -3z" />
    <glyph glyph-name="uni0E25" unicode="&#xe25;" horiz-adv-x="566" 
d="M229 -10q-89 0 -132 41.5t-43 110.5q0 84 59 128t191 52l118 5v49q0 67 -35 99.5t-111 32.5q-50 0 -95 -13t-85 -35v57q28 14 76.5 27t110.5 13q196 0 196 -176v-381h-57v278l-107 -6q-109 -6 -156 -36t-47 -92q0 -53 33.5 -79.5t90.5 -26.5q33 0 60 9l9 -45
q-14 -6 -35 -9t-41 -3z" />
    <glyph glyph-name="uni0E26" unicode="&#xe26;" horiz-adv-x="590" 
d="M80 -8q-14 0 -28 2.5t-27 8.5l8 43q16 -7 31 -7q18 0 24.5 10.5t6.5 32.5v121q0 61 24.5 88.5t66.5 37.5l2 3l-116 44v26q0 40 25.5 75t74 57.5t116.5 22.5q61 0 110 -20t77.5 -61.5t28.5 -103.5v-568h-58v560q0 75 -44.5 109.5t-113.5 34.5q-74 0 -115 -32t-41 -78
l114 -53l-8 -39q-38 -3 -62 -26.5t-24 -77.5v-126q0 -49 -20.5 -66.5t-51.5 -17.5z" />
    <glyph glyph-name="uni0E27" unicode="&#xe27;" horiz-adv-x="488" 
d="M194 -10q-40 0 -76 8.5t-74 28.5l20 46q24 -14 54 -24t67 -10q80 0 127.5 58.5t47.5 178.5q0 117 -47.5 174.5t-148.5 57.5q-31 0 -63.5 -7t-58.5 -21v50q28 15 63 21t69 6q130 0 188 -73.5t58 -207.5q0 -139 -59 -212.5t-167 -73.5z" />
    <glyph glyph-name="uni0E28" unicode="&#xe28;" horiz-adv-x="622" 
d="M86 0v360q0 96 55 146.5t163 50.5q96 0 144 -43q24 8 41 25t17 45h57q0 -38 -23 -63.5t-58 -38.5q20 -21 30 -52t10 -70v-360h-58v358q0 74 -42 112t-118 38t-118 -38t-42 -112v-129l3 -1q22 37 56.5 54t93.5 17h43v-49h-42q-81 0 -117.5 -35.5t-36.5 -93.5v-121h-58z
" />
    <glyph glyph-name="uni0E29" unicode="&#xe29;" horiz-adv-x="634" 
d="M306 -10q-117 0 -168.5 55.5t-51.5 145.5v357h58v-356q0 -75 39.5 -114t122.5 -39t122.5 39t39.5 114v50h-106q-50 0 -70 20t-20 50t12 48l47 -10q-6 -12 -6 -28q0 -15 9.5 -24.5t31.5 -9.5h102v260h58v-260h64v-46h-64v-51q0 -90 -51.5 -145.5t-168.5 -55.5z" />
    <glyph glyph-name="uni0E2A" unicode="&#xe2a;" horiz-adv-x="566" 
d="M226 -10q-87 0 -129.5 42t-42.5 112q0 83 60.5 126.5t189.5 51.5l118 5v49q0 67 -35 99.5t-111 32.5q-50 0 -95 -13t-85 -35v57q28 14 76 27t108 13q91 0 135 -40q21 9 35 25t14 42h58q0 -36 -21 -61t-53 -38q16 -18 23.5 -44.5t7.5 -59.5v-381h-57v278l-107 -6
q-107 -6 -155 -36t-48 -91q0 -55 33.5 -81t90.5 -26q33 0 60 9l10 -45q-30 -12 -80 -12z" />
    <glyph glyph-name="uni0E2B" unicode="&#xe2b;" horiz-adv-x="581" 
d="M96 0v548h58v-273h3l273 273h70v-3l-168 -166q90 -5 132 -54t42 -135v-190h-58v188q0 70 -36 108.5t-124 39.5l-134 -132v-204h-58z" />
    <glyph glyph-name="uni0E2C" unicode="&#xe2c;" horiz-adv-x="656" 
d="M131 0l-84 548h58l43 -305q4 -30 9.5 -72t8.5 -94h4q11 36 20 62.5t18.5 52.5t21.5 58l75 201h47l76 -201q12 -32 21.5 -57.5t18.5 -52.5t20 -63h4q2 41 7.5 85t12.5 81l26 165q12 74 -16 107t-100 33h-46v44h84q68 0 96 29.5t28 84.5v8h58v-8q0 -59 -24.5 -94.5
t-80.5 -49.5v-4q41 -19 52.5 -57.5t4.5 -82.5l-68 -418h-58l-100 270q-12 31 -21 58t-17 60h-4q-8 -35 -16.5 -63t-18.5 -55l-102 -270h-58z" />
    <glyph glyph-name="uni0E2D" unicode="&#xe2d;" horiz-adv-x="569" 
d="M272 -10q-106 0 -156 56t-50 178q0 18 1 41t3 41h194v-46h-141v-36q0 -100 35.5 -143t113.5 -43q54 0 92 21.5t58 72t20 139.5q0 115 -41 176t-143 61q-48 0 -93 -12.5t-83 -33.5v56q29 15 77.5 27t104.5 12q85 0 137 -34.5t75.5 -99t23.5 -153.5q0 -136 -52 -208
t-176 -72z" />
    <glyph glyph-name="uni0E2E" unicode="&#xe2e;" horiz-adv-x="555" 
d="M272 -10q-106 0 -156 56t-50 178q0 18 1 41t3 41h194v-46h-141v-36q0 -100 35.5 -143t113.5 -43q54 0 92 21.5t58 72t20 139.5q0 115 -41 176t-143 61q-48 0 -93 -12t-83 -34v56q29 15 77 27t105 12q45 0 81.5 -10.5t63.5 -32.5q24 9 40.5 26t16.5 44h58
q0 -38 -23.5 -63.5t-58.5 -38.5q31 -34 44.5 -88.5t13.5 -123.5q0 -136 -52 -208t-176 -72z" />
    <glyph glyph-name="uni0E2F" unicode="&#xe2f;" horiz-adv-x="516" 
d="M349 -1v301q-40 -63 -146 -63q-84 0 -131 45.5t-47 127.5q0 70 39 108.5t104 38.5q14 0 29.5 -2t32.5 -9l-10 -46q-11 4 -22.5 6t-20.5 2q-40 0 -67 -24t-27 -79q0 -58 32.5 -89.5t96.5 -31.5q72 0 104.5 37t32.5 109v118h57v-549h-57z" />
    <glyph glyph-name="uni0E30" unicode="&#xe30;" horiz-adv-x="336" 
d="M134 355q-48 0 -69 21t-21 48q0 13 4 27t9 23l49 -8q-2 -6 -4.5 -15t-2.5 -17q0 -15 8 -23.5t29 -8.5h156v-47h-158zM134 75q-48 0 -69 21t-21 48q0 13 4 27t9 23l49 -8q-2 -6 -4.5 -15t-2.5 -17q0 -15 8 -23.5t29 -8.5h156v-47h-158z" />
    <glyph glyph-name="uni0E31" unicode="&#xe31;" 
d="M-232 636q-48 0 -68.5 20t-20.5 48q0 12 3.5 26.5t9.5 23.5l49 -8q-2 -5 -4.5 -14.5t-2.5 -17.5q0 -14 8.5 -23t29.5 -9h266v-46h-270z" />
    <glyph glyph-name="uni0E32" unicode="&#xe32;" horiz-adv-x="407" 
d="M263 0v398q0 56 -26 83t-85 27q-33 0 -67.5 -10.5t-64.5 -26.5v55q22 10 59 20.5t85 10.5q76 0 116 -36t40 -111v-410h-57z" />
    <glyph glyph-name="uni0E33" unicode="&#xe33;" horiz-adv-x="407" 
d="M263 0v398q0 56 -26 83t-85 27q-33 0 -67.5 -10.5t-64.5 -26.5v55q22 10 59 20.5t85 10.5q76 0 116 -36t40 -111v-410h-57zM-157 616q-43 0 -70 21.5t-27 63.5t27 63.5t70 21.5t70.5 -21.5t27.5 -63.5t-27.5 -63.5t-70.5 -21.5zM-157 650q26 0 41 14t15 37t-15 37t-41 14
t-40.5 -14t-14.5 -37t14.5 -37t40.5 -14z" />
    <glyph glyph-name="uni0E34" unicode="&#xe34;" 
d="M-506 636v26l50 21h360v-47h-410z" />
    <glyph glyph-name="uni0E35" unicode="&#xe35;" 
d="M-506 636v26l50 21h306v89h54v-136h-410z" />
    <glyph glyph-name="uni0E36" unicode="&#xe36;" 
d="M-506 636v26l50 21h214q-6 13 -6 26q0 35 22.5 54t57.5 19q37 0 59.5 -20t22.5 -54q0 -33 -22 -52.5t-59 -19.5h-339zM-166 669q19 0 30.5 11t11.5 28q0 18 -12 29t-31 11t-30.5 -11t-11.5 -28t11.5 -28.5t31.5 -11.5z" />
    <glyph glyph-name="uni0E37" unicode="&#xe37;" 
d="M-506 636v26l50 21h197v82h49v-82h66v82h48v-129h-410z" />
    <glyph glyph-name="uni0E38" unicode="&#xe38;" 
d="M-150 -261v123q0 24 -20 24q-5 0 -11 -1t-11 -3l-4 41q12 5 24.5 6.5t21.5 1.5q26 0 39.5 -13t13.5 -35v-144h-53z" />
    <glyph glyph-name="uni0E39" unicode="&#xe39;" 
d="M-208 -263q-56 0 -84.5 25t-28.5 69v36q0 26 -33 17l-6 42q10 3 21 4t17 1q52 0 52 -49v-48q0 -24 14.5 -39.5t46.5 -15.5t46.5 15.5t14.5 39.5v94h52v-94q0 -46 -28 -71.5t-84 -25.5z" />
    <glyph glyph-name="uni0E3A" unicode="&#xe3a;" 
d="M-129 -170q-51 0 -51 50t51 50t51 -50t-51 -50z" />
    <glyph glyph-name="uni0E3F" unicode="&#xe3f;" horiz-adv-x="577" 
d="M90 38v637h167v85h43v-86q103 -4 152.5 -41t49.5 -111q0 -58 -32 -97t-94 -50v-3q70 -11 108 -48.5t38 -105.5q0 -93 -61.5 -136.5t-160.5 -43.5v-96h-43v96h-167zM146 396h111v229h-111v-229zM442 516q0 53 -34 78.5t-108 29.5v-228q76 4 109 34.5t33 85.5zM146 87h111
v260h-111v-260zM462 220q0 121 -162 127v-260q81 2 121.5 36t40.5 97z" />
    <glyph glyph-name="uni0E40" unicode="&#xe40;" horiz-adv-x="278" 
d="M192 -10q-34 0 -62 19t-28 69v470h57v-462q0 -48 45 -48q21 0 41 9l9 -44q-15 -7 -31.5 -10t-30.5 -3z" />
    <glyph glyph-name="uni0E41" unicode="&#xe41;" horiz-adv-x="538" 
d="M192 -10q-34 0 -62 19t-28 69v470h57v-462q0 -48 45 -48q21 0 41 9l9 -44q-15 -7 -31.5 -10t-30.5 -3zM452 -10q-34 0 -62 19t-28 69v470h57v-462q0 -48 45 -48q21 0 41 9l9 -44q-15 -7 -31.5 -10t-30.5 -3z" />
    <glyph glyph-name="uni0E42" unicode="&#xe42;" horiz-adv-x="286" 
d="M203 -10q-35 0 -62.5 19t-27.5 69v581q0 55 -26 82t-72 27v24l53 24h254v-48h-202l-1 -4q24 -16 37.5 -44t13.5 -76v-558q0 -48 45 -48q21 0 41 9l9 -44q-15 -7 -31.5 -10t-30.5 -3z" />
    <glyph glyph-name="uni0E43" unicode="&#xe43;" horiz-adv-x="274" 
d="M182 -10q-35 0 -63 19t-28 69v404q0 27 6 45t19.5 36t33.5 45q24 31 36.5 52t12.5 48q0 34 -20.5 50t-54.5 16q-30 0 -56.5 -8.5t-42.5 -17.5v52q13 7 42 14.5t63 7.5q57 0 91.5 -27t34.5 -81q0 -38 -15.5 -67t-37.5 -57q-19 -24 -31 -40t-18 -32t-6 -40v-392
q0 -48 44 -48q24 0 42 9l10 -44q-15 -7 -31.5 -10t-30.5 -3z" />
    <glyph glyph-name="uni0E44" unicode="&#xe44;" horiz-adv-x="276" 
d="M192 -10q-34 0 -62 19t-28 69v566q0 56 13 80t35 40l-1 4h-156l15 48h241v-46q-42 -2 -66 -27.5t-24 -83.5v-573q0 -48 45 -48q21 0 41 9l9 -44q-15 -7 -31.5 -10t-30.5 -3z" />
    <glyph glyph-name="uni0E45" unicode="&#xe45;" horiz-adv-x="407" 
d="M263 -195v593q0 56 -26 83t-85 27q-33 0 -67.5 -10.5t-64.5 -26.5v55q22 10 59 20.5t85 10.5q76 0 116 -36t40 -111v-605h-57z" />
    <glyph glyph-name="uni0E46" unicode="&#xe46;" horiz-adv-x="589" 
d="M446 -196v629q0 40 -17 57.5t-46 17.5q-63 0 -63 -75v-42h-50v42q0 37 -16.5 56t-45.5 19q-33 0 -50.5 -26.5t-17.5 -87.5q0 -70 18 -97t55 -27q19 0 41 8l12 -44q-16 -8 -31 -10.5t-31 -2.5q-63 0 -91.5 44.5t-28.5 126.5q0 88 32 126.5t84 38.5q33 0 59.5 -15.5
t36.5 -43.5h2q22 59 98 59q44 0 75 -25.5t31 -87.5v-640h-56z" />
    <glyph glyph-name="uni0E47" unicode="&#xe47;" 
d="M-186 623q-31 0 -52 13.5t-34 38.5l-54 -49q-52 0 -83.5 27.5t-31.5 78.5q0 52 31.5 79.5t75.5 27.5h232v-43h-221q-29 0 -49 -16.5t-20 -51.5q0 -27 15 -43.5t44 -16.5l61 54h18q6 -26 21 -41.5t41 -15.5q21 0 33 12t12 32v13h45v-14q0 -43 -24 -64t-60 -21z" />
    <glyph glyph-name="uni0E48" unicode="&#xe48;" 
d="M-154 636v200h57v-200h-57z" />
    <glyph glyph-name="uni0E49" unicode="&#xe49;" 
d="M-354 636v30q39 8 70.5 27t31.5 51q0 18 -10.5 29t-31.5 11q-12 0 -24 -5t-22 -9l-14 38q20 14 40 18t34 4q38 0 59 -20.5t21 -54.5q0 -22 -11 -41t-26 -32h173v-46h-290z" />
    <glyph glyph-name="uni0E4A" unicode="&#xe4a;" 
d="M-321 630q-43 0 -68.5 25.5t-25.5 71.5t25 71.5t67 29.5l55 -36l54 36q46 -8 70 -32t24 -60q0 -35 -24 -58h90v-42h-162v28q20 7 33 22.5t13 38.5q0 29 -15 42t-31 17l-48 -30h-8l-48 30q-16 -2 -30.5 -14t-14.5 -44q0 -28 15 -43t39 -15q12 0 24 5l9 -34q-14 -9 -43 -9z
" />
    <glyph glyph-name="uni0E4B" unicode="&#xe4b;" 
d="M-226 636v76h-82v44h82v80h50v-80h82v-44h-82v-76h-50z" />
    <glyph glyph-name="uni0E4C" unicode="&#xe4c;" 
d="M-247 620q-13 21 -13 52q0 28 19 47.5t65 19.5h129v-47h-115q-44 0 -44 -32q0 -16 10 -31z" />
    <glyph glyph-name="uni0E4D" unicode="&#xe4d;" 
d="M-157 616q-43 0 -70 21.5t-27 63.5t27 63.5t70 21.5t70.5 -21.5t27.5 -63.5t-27.5 -63.5t-70.5 -21.5zM-157 650q26 0 41 14t15 37t-15 37t-41 14t-40.5 -14t-14.5 -37t14.5 -37t40.5 -14z" />
    <glyph glyph-name="uni0E4E" unicode="&#xe4e;" 
d="M-248 610q-5 8 -8.5 20.5t-3.5 23.5q0 32 21 47t47 15q20 0 34 -8q-4 11 -4 22q0 27 20.5 40.5t47.5 13.5q10 0 23 -2t23 -6v-36q-10 2 -19 3t-15 1q-40 0 -40 -34q0 -6 2 -13t6 -13l-26 -19q-19 14 -38 14q-20 0 -29.5 -10t-9.5 -25q0 -6 2.5 -13t6.5 -14z" />
    <glyph glyph-name="uni0E4F" unicode="&#xe4f;" horiz-adv-x="581" 
d="M290 -5q-112 0 -168.5 61.5t-56.5 171.5q0 232 225 232q226 0 226 -232q0 -110 -56.5 -171.5t-169.5 -61.5zM290 42q84 0 127 48t43 138q0 94 -43 139t-127 45t-126.5 -45t-42.5 -139q0 -90 42.5 -138t126.5 -48zM290 128q-44 0 -65 27.5t-21 72.5q0 98 86 98t86 -98
q0 -45 -21 -72.5t-65 -27.5z" />
    <glyph glyph-name="uni0E50" unicode="&#xe50;" horiz-adv-x="566" 
d="M283 -10q-107 0 -163 63.5t-56 174.5q0 116 56 176t163 60t163 -60t56 -176q0 -111 -56 -174.5t-163 -63.5zM283 39q78 0 119.5 49.5t41.5 139.5q0 94 -41.5 140.5t-119.5 46.5q-79 0 -120 -46.5t-41 -140.5q0 -90 41 -139.5t120 -49.5z" />
    <glyph glyph-name="uni0E51" unicode="&#xe51;" horiz-adv-x="542" 
d="M270 -10q-45 0 -72 10v48q10 -4 26.5 -7t36.5 -3q85 0 122 53t37 143q0 98 -41 139.5t-118 41.5q-68 0 -107 -31.5t-39 -93.5q0 -49 24 -76.5t65 -27.5q19 0 32 4l8 -44q-10 -6 -23 -8.5t-27 -2.5q-64 0 -100 42.5t-36 112.5q0 86 55 130t149 44q110 0 163 -58t53 -170
q0 -71 -21.5 -126.5t-67.5 -87.5t-119 -32z" />
    <glyph glyph-name="uni0E52" unicode="&#xe52;" horiz-adv-x="616" 
d="M317 -10q-127 0 -186 59.5t-59 155.5v379h55v-374q0 -48 18.5 -87t60.5 -61.5t111 -22.5t107.5 22.5t54 61.5t15.5 87v141q0 35 -13 50t-35 15q-27 0 -37.5 -19t-12.5 -49h-38q-2 32 -13.5 50t-37.5 18q-49 0 -49 -80q0 -39 13 -60.5t45 -21.5q8 0 17 2.5t17 5.5l11 -41
q-25 -13 -51 -13q-56 0 -81 36t-25 94q0 64 26 94t68 30q29 0 49.5 -14t28.5 -40h3q8 27 29.5 40.5t49.5 13.5q36 0 64 -23t28 -81v-153q0 -64 -23 -112.5t-74 -75.5t-136 -27z" />
    <glyph glyph-name="uni0E53" unicode="&#xe53;" horiz-adv-x="555" 
d="M262 350q-4 39 -22 52.5t-38 13.5q-33 0 -57 -39t-24 -133q0 -104 24 -155.5t79 -51.5q18 0 37 7l7 -44q-23 -10 -58 -10q-78 0 -112 67t-34 185q0 80 17 129t46.5 71t66.5 22q30 0 53.5 -13t32.5 -44h4q9 31 34.5 44t57.5 13q47 0 78.5 -28t31.5 -90v-346h-57v346
q0 40 -18.5 55t-44.5 15q-22 0 -41.5 -13.5t-24.5 -52.5h-38z" />
    <glyph glyph-name="uni0E54" unicode="&#xe54;" horiz-adv-x="546" 
d="M260 0q-98 0 -147 53t-49 173q0 111 45 172.5t141 61.5h62q58 0 76 20t18 66v38h56v-42q0 -64 -31 -97.5t-103 -33.5h-66q-71 0 -106 -44.5t-35 -141.5q0 -96 35 -136.5t110 -40.5h81q-41 38 -41 106q0 62 27.5 91t70.5 29q26 0 48 -10l-16 -40q-6 2 -13 3t-11 1
q-24 0 -39 -19.5t-15 -58.5q0 -48 23 -76t57 -28h48v-46h-226z" />
    <glyph glyph-name="uni0E55" unicode="&#xe55;" horiz-adv-x="546" 
d="M260 0q-100 0 -148 54.5t-48 176.5q0 105 38.5 156t97.5 65q-12 9 -20 24t-8 35q0 36 23.5 56.5t62.5 20.5q40 0 63 -21.5t23 -55.5q0 -33 -21 -53q51 3 69 22.5t18 68.5v35h52v-41q0 -68 -34 -100.5t-113 -32.5h-57q-137 0 -137 -182q0 -98 34.5 -139t110.5 -41h79
q-39 41 -39 106q0 62 28 90.5t70 28.5q28 0 48 -9l-16 -41q-6 2 -13 3t-11 1q-24 0 -39 -19.5t-15 -59.5q0 -46 23 -74t57 -28h48v-46h-226zM258 462q24 0 36 13.5t12 32.5q0 20 -12 33t-36 13t-35.5 -13t-11.5 -33q0 -19 11.5 -32.5t35.5 -13.5z" />
    <glyph glyph-name="uni0E56" unicode="&#xe56;" horiz-adv-x="528" 
d="M261 -10q-55 0 -97 17t-74 55l38 36q24 -27 54.5 -43.5t77.5 -16.5q75 0 111 47t36 145q0 96 -35 141t-106 45q-48 0 -80 -20t-46 -63h-37l-69 251h54l50 -177q23 31 58 44t76 13q97 0 144.5 -61t47.5 -177q0 -122 -52.5 -179t-150.5 -57z" />
    <glyph glyph-name="uni0E57" unicode="&#xe57;" horiz-adv-x="714" 
d="M253 350q-5 36 -19.5 51t-37.5 15q-33 0 -54 -37t-21 -131q0 -110 23.5 -160.5t79.5 -50.5q19 0 37 8l7 -45q-23 -10 -55 -10q-80 0 -114.5 66.5t-34.5 189.5q0 88 18 135t47 65t60 18t51.5 -13t30.5 -44h3q10 32 35 44.5t55 12.5q42 0 71 -24.5t29 -80.5v-310
q52 0 85 26.5t33 94.5v414h56v-416q0 -63 -25.5 -99.5t-67.5 -52.5t-91 -16h-46v350q0 34 -15 50t-41 16t-41 -15t-20 -51h-38z" />
    <glyph glyph-name="uni0E58" unicode="&#xe58;" horiz-adv-x="566" 
d="M384 -10q-47 0 -74 23.5t-36 66.5l-68 -85q-58 0 -100 54.5t-42 173.5q0 71 19 124.5t62.5 82.5t116.5 29h62q40 0 61 6.5t28 25.5t7 55v38h55v-44q0 -70 -30.5 -100t-101.5 -30h-73q-84 0 -117 -48t-33 -136q0 -90 24.5 -130.5t51.5 -45.5l74 88h36q2 -52 20 -75.5
t53 -23.5q38 0 56 25.5t18 66.5q0 44 -17 66.5t-37 35.5l35 41q36 -21 55 -55t19 -85q0 -65 -32 -104.5t-92 -39.5z" />
    <glyph glyph-name="uni0E59" unicode="&#xe59;" horiz-adv-x="500" 
d="M212 -10q-80 0 -114 67t-34 181q0 84 16.5 133.5t47.5 71t74 21.5q32 0 51.5 -11t32.5 -34q7 22 23.5 33.5t45.5 11.5h28q25 0 34 12t9 40v68h54v-72q0 -45 -19 -68.5t-62 -23.5h-33q-30 0 -42.5 -20t4.5 -60l142 -340h-60l-148 363q-10 25 -23.5 39t-37.5 14
q-36 0 -58 -39t-22 -139q0 -91 22.5 -146t79.5 -55q8 0 18 1.5t19 5.5l6 -45q-24 -9 -54 -9z" />
    <glyph glyph-name="uni0E5A" unicode="&#xe5a;" horiz-adv-x="754" 
d="M349 -1v305q-20 -35 -57 -51t-88 -16q-86 0 -132.5 45.5t-46.5 127.5q0 70 39 108.5t104 38.5q14 0 29.5 -2t32.5 -9l-10 -46q-11 4 -22.5 6t-19.5 2q-41 0 -68 -24t-27 -79q0 -58 32.5 -89.5t97.5 -31.5q71 0 103.5 37t32.5 104v123h57v-244q9 -4 22 -6.5t28 -2.5
q60 0 96 32.5t36 105.5v115h58v-549h-58v311q-19 -33 -53 -48.5t-74 -15.5q-28 0 -55 11v-258h-57z" />
    <glyph glyph-name="uni0E5B" unicode="&#xe5b;" horiz-adv-x="826" 
d="M226 75q-82 0 -130 46.5t-48 131.5q0 43 14.5 79t45.5 57t80 21q60 0 93 -30.5t33 -81.5q0 -22 -6 -42t-16 -34l-42 22q6 9 10 21t4 27q0 34 -21 53t-55 19q-45 0 -65 -31t-20 -77q0 -68 35 -101t92 -33q52 0 87 27t52 72.5t17 100.5h38l64 -130l36 122h32l46 -114
l36 106h28l8 -24q15 -43 29.5 -64.5t50.5 -21.5q20 0 32 6v-40q-8 -3 -17 -5.5t-21 -2.5q-69 0 -99 83l-31 -98h-28l-48 119l-36 -129h-30l-56 119q-5 -27 -16.5 -57t-34 -56.5t-57.5 -43t-86 -16.5z" />
    <glyph glyph-name="uni200B" unicode="&#x200b;" 
 />
    <glyph glyph-name="uni200C" unicode="&#x200c;" 
d="M-21 -133v761h42v-761h-42z" />
    <glyph glyph-name="uni200D" unicode="&#x200d;" 
d="M-21 -133v668l-62 -62l-26 27l82 82l-82 81l26 27l83 -83l83 83l26 -27l-82 -81l82 -82l-26 -27l-62 62v-668h-42z" />
    <glyph glyph-name="uni2010" unicode="&#x2010;" horiz-adv-x="322" 
d="M40 244v52h242v-52h-242z" />
    <glyph glyph-name="uni25CC" unicode="&#x25cc;" horiz-adv-x="594" 
d="M297 488q-11 0 -18.5 8t-7.5 18t7.5 18t18.5 8t18.5 -8t7.5 -18t-7.5 -18t-18.5 -8zM213 470q-11 0 -18.5 8t-7.5 18t7.5 18t18.5 8t18.5 -8t7.5 -18t-7.5 -18t-18.5 -8zM381 470q-11 0 -18.5 8t-7.5 18t7.5 18t18.5 8t18.5 -8t7.5 -18t-7.5 -18t-18.5 -8zM455 423
q-11 0 -18.5 7.5t-7.5 18.5t7.5 18.5t18.5 7.5t18.5 -7.5t7.5 -18.5t-7.5 -18.5t-18.5 -7.5zM139 423q-11 0 -18.5 7.5t-7.5 18.5t7.5 18.5t18.5 7.5t18.5 -7.5t7.5 -18.5t-7.5 -18.5t-18.5 -7.5zM92 349q-10 0 -18 7.5t-8 18.5t8 18.5t18 7.5t18 -7.5t8 -18.5t-8 -18.5
t-18 -7.5zM502 349q-10 0 -18 7.5t-8 18.5t8 18.5t18 7.5t18 -7.5t8 -18.5t-8 -18.5t-18 -7.5zM74 265q-10 0 -18 7.5t-8 18.5t8 18.5t18 7.5t18 -7.5t8 -18.5t-8 -18.5t-18 -7.5zM520 265q-10 0 -18 7.5t-8 18.5t8 18.5t18 7.5t18 -7.5t8 -18.5t-8 -18.5t-18 -7.5zM92 181
q-10 0 -18 7.5t-8 18.5t8 18.5t18 7.5t18 -7.5t8 -18.5t-8 -18.5t-18 -7.5zM502 181q-10 0 -18 7.5t-8 18.5t8 18.5t18 7.5t18 -7.5t8 -18.5t-8 -18.5t-18 -7.5zM139 107q-11 0 -18.5 7.5t-7.5 18.5t7.5 18.5t18.5 7.5t18.5 -7.5t7.5 -18.5t-7.5 -18.5t-18.5 -7.5zM455 107
q-11 0 -18.5 7.5t-7.5 18.5t7.5 18.5t18.5 7.5t18.5 -7.5t7.5 -18.5t-7.5 -18.5t-18.5 -7.5zM213 60q-11 0 -18.5 8t-7.5 18t7.5 18t18.5 8t18.5 -8t7.5 -18t-7.5 -18t-18.5 -8zM381 60q-11 0 -18.5 8t-7.5 18t7.5 18t18.5 8t18.5 -8t7.5 -18t-7.5 -18t-18.5 -8zM297 42
q-11 0 -18.5 8t-7.5 18t7.5 18t18.5 8t18.5 -8t7.5 -18t-7.5 -18t-18.5 -8z" />
    <glyph glyph-name="saraUu-thai.small" horiz-adv-x="600" 
d="M94 0v714h411v-714h-411zM145 51h309v612h-309v-612z" />
    <glyph glyph-name="uni0E24.aalt" horiz-adv-x="589" 
d="M193 -8q-43 0 -74.5 21.5t-31.5 78.5v110q0 62 28.5 89t70.5 38v3l-114 44v26q0 40 25 75t73 57.5t117 22.5q61 0 109.5 -20t77 -61.5t28.5 -103.5v-540h-57v532q0 75 -44.5 109.5t-114.5 34.5q-72 0 -114 -32t-42 -78l114 -53l-6 -39q-39 -3 -66.5 -24t-27.5 -74v-111
q0 -30 15.5 -43.5t43.5 -13.5q25 0 47 8l9 -43q-17 -7 -33 -10t-33 -3z" />
    <glyph glyph-name="uni0E26.aalt" horiz-adv-x="590" 
d="M80 -8q-14 0 -28 2.5t-27 8.5l8 43q16 -7 31 -7q18 0 24.5 10.5t6.5 32.5v121q0 61 24.5 88.5t66.5 37.5l2 3l-116 44v26q0 40 25.5 75t74 57.5t116.5 22.5q61 0 110 -20t77.5 -61.5t28.5 -103.5v-540h-58v532q0 75 -44.5 109.5t-113.5 34.5q-74 0 -115 -32t-41 -78
l114 -53l-8 -39q-38 -3 -62 -26.5t-24 -77.5v-126q0 -49 -20.5 -66.5t-51.5 -17.5z" />
    <glyph glyph-name="doChada-thai.short" horiz-adv-x="590" 
d="M104 -170v16q0 50 36 83t110 33q55 0 105.5 -19t90.5 -52v473q0 75 -44.5 109.5t-114.5 34.5q-73 0 -114 -32t-41 -78l114 -53l-8 -39q-38 -3 -62 -26.5t-24 -77.5v-126q0 -48 -21 -66t-52 -18q-27 0 -54 11l8 43q7 -2 15 -4t16 -2q18 0 24.5 10t6.5 32v121
q0 61 24.5 88.5t66.5 37.5l2 3l-116 44v26q0 40 25.5 75t74 57.5t116.5 22.5q61 0 110 -20t77.5 -61.5t28.5 -103.5v-542h-46q-20 20 -51 39t-68 32t-76 13q-52 0 -76.5 -22t-24.5 -53v-9h-58z" />
    <glyph glyph-name="toPatak-thai.short" horiz-adv-x="590" 
d="M78 -170v20q0 48 29.5 75t74.5 27q44 0 72 -21t44 -49l73 66l75 -61v477q0 75 -44.5 109.5t-114.5 34.5q-73 0 -114 -32t-41 -78l114 -53l-8 -39q-38 -3 -62 -26.5t-24 -77.5v-126q0 -48 -21 -66t-52 -18q-27 0 -54 11l8 43q7 -2 15 -4t16 -2q18 0 24.5 10t6.5 32v121
q0 61 24.5 88.5t66.5 37.5l2 3l-116 44v26q0 40 25.5 75t74 57.5t116.5 22.5q61 0 110 -20t77.5 -61.5t28.5 -103.5v-542h-52l-80 68l-72 -68h-16q-16 31 -38.5 53.5t-55.5 22.5q-30 0 -43.5 -19.5t-13.5 -46.5v-10h-55z" />
    <glyph glyph-name="yoYing-thai.less" horiz-adv-x="886" 
d="M607 -10q-94 0 -142 47t-48 135v192q0 54 -19 85.5t-52 45t-74 13.5q-63 0 -102 -29.5t-40 -80.5l114 -53l-6 -39q-39 -3 -66.5 -26.5t-27.5 -76.5v-106q0 -30 15.5 -43.5t43.5 -13.5q25 0 47 8l9 -43q-17 -7 -33 -10t-33 -3q-43 0 -74.5 21.5t-31.5 78.5v110
q0 62 28.5 89t70.5 38v3l-114 44v26q0 43 24 78t69.5 56t108.5 21q54 0 99.5 -19t73 -59.5t27.5 -106.5v-199q0 -70 36 -102t97 -32q60 0 97.5 32t37.5 102v375h57v-376q0 -88 -49 -135t-143 -47z" />
    <glyph glyph-name="thoThan-thai.less" horiz-adv-x="540" 
d="M154 0v260h-74v47h130v-259h14q52 0 90 21.5t59 71t21 135.5q0 126 -42 179t-140 53q-46 0 -89.5 -13t-82.5 -37v56q28 16 76 29.5t104 13.5q101 0 150 -46q28 7 48 24.5t20 48.5h58q0 -42 -27 -68.5t-68 -37.5q28 -34 40.5 -85t12.5 -119q0 -141 -58 -207.5t-186 -66.5
h-56z" />
    <glyph glyph-name="loChula-thai.short" horiz-adv-x="642" 
d="M120 0l-73 548h58l39 -295q5 -42 9.5 -82.5t8.5 -90.5h4q12 34 25.5 70t34.5 88l69 172h46l73 -172q14 -35 30 -76t33 -89h5q4 56 11 98.5t13 79.5l16 109q9 60 -8.5 85.5t-78.5 25.5h-48v43h85q50 0 69 16t20 54h57q1 -44 -21.5 -69t-64.5 -31v-4q32 -13 41.5 -41.5
t2.5 -70.5l-59 -368h-59l-98 240q-12 30 -22 59t-17 55h-4q-7 -26 -17 -55t-22 -59l-98 -240h-60z" />
    <glyph glyph-name="macronbelowcomb.alt" 
d="M-120 -89v-47h-556v47h556z" />
    <glyph glyph-name="uni0E31.aalt" 
d="M-388 636q-48 0 -69 20t-21 48q0 12 4 26.5t8 23.5l50 -8q-3 -5 -4.5 -14.5t-1.5 -17.5q0 -14 8.5 -23t29.5 -9h174v-46h-178z" />
    <glyph glyph-name="glyph99" 
d="M-151 836v152h55v-152h-55z" />
    <glyph glyph-name="glyph100" 
d="M-332 636v200h58v-200h-58z" />
    <glyph glyph-name="glyph102" 
d="M-230 836v26q34 6 55 22t21 38q0 27 -29 27q-10 0 -19.5 -3.5t-17.5 -7.5l-14 34q16 9 34 12.5t31 3.5q26 0 44.5 -14t18.5 -42q0 -14 -4.5 -27.5t-16.5 -23.5h122v-45h-225z" />
    <glyph glyph-name="glyph103" 
d="M-456 636v30q38 8 69 27t31 51q0 18 -10 29t-31 11q-11 0 -23.5 -5l-22.5 -9l-15 38q20 14 40.5 18t34.5 4q37 0 59 -21t22 -55q0 -47 -42 -72h133v-46h-245z" />
    <glyph glyph-name="glyph105" 
d="M-194 831q-36 0 -57 22.5t-21 56.5q0 35 22 56.5t60 23.5l49 -34l47 34q33 -3 55.5 -20.5t22.5 -47.5q0 -31 -19 -48h79v-38h-144v26q18 5 29 18t11 31t-10 28.5t-24 13.5l-44 -31h-6l-46 32q-15 -2 -26.5 -12.5t-11.5 -31.5q0 -18 10.5 -30.5t31.5 -12.5q11 0 20 3
l8 -32q-14 -7 -36 -7z" />
    <glyph glyph-name="glyph106" 
d="M-434 630q-42 0 -66 25.5t-24 71.5t23.5 71.5t62.5 29.5l48 -36l48 36q41 -7 64.5 -30.5t23.5 -61.5q0 -34 -20 -57h74v-43h-144v28q19 7 31.5 22t12.5 40q0 27 -14 41.5t-32 18.5l-40 -30h-8l-40 30q-16 -2 -30.5 -16t-14.5 -43q0 -26 13.5 -42.5t37.5 -16.5q13 0 26 5
l8 -34q-14 -9 -40 -9z" />
    <glyph glyph-name="glyph108" 
d="M-150 836v56h-58v42h58v56h50v-56h58v-42h-58v-56h-50z" />
    <glyph glyph-name="glyph110" 
d="M-207 819q-7 10 -10 23.5t-3 27.5q0 28 19 48t65 20h124v-46h-110q-44 0 -44 -33q0 -7 2.5 -15t6.5 -16z" />
    <glyph glyph-name="glyph111" 
d="M-424 606q-6 9 -9 23t-3 29q0 27 18.5 46.5t64.5 19.5h143v-46h-128q-44 0 -44 -33q0 -15 8 -31z" />
    <glyph glyph-name="uni0E47.aalt" 
d="M-288 620q-28 0 -48 13.5t-32 38.5l-41 -48q-53 0 -83 27t-30 79t31 79t73 27h208v-42h-198q-28 0 -46.5 -16.5t-18.5 -51.5q0 -27 14.5 -43.5t42.5 -16.5l47 54h20q11 -58 53 -58t42 45v13h44v-14q0 -44 -22.5 -65t-55.5 -21z" />
    <glyph glyph-name="uni0E34.aalt" 
d="M-543 636v26l50 21h282v-47h-332z" />
    <glyph glyph-name="uni0E35.aalt" 
d="M-543 636v26l50 20h228v75h54v-121h-332z" />
    <glyph glyph-name="uni0E36.aalt" 
d="M-542 636v26l50 20h146q-6 13 -6 28q0 35 23 54.5t58 19.5q37 0 59.5 -20t22.5 -55q0 -34 -22.5 -53.5t-58.5 -19.5h-272zM-270 669q19 0 30.5 11t11.5 30q0 18 -12 29t-31 11t-31 -11t-12 -29t11.5 -29.5t32.5 -11.5z" />
    <glyph glyph-name="uni0E37.aalt" 
d="M-543 636v26l50 20h127v82h48v-82h60v82h48v-128h-333z" />
    <glyph glyph-name="nikhahit_maiEk-thai" 
d="M-157 616q-43 0 -70 21.5t-27 63.5t27 63.5t70 21.5t70.5 -21.5t27.5 -63.5t-27.5 -63.5t-70.5 -21.5zM-157 650q26 0 41 14t15 37t-15 37t-41 14t-40.5 -14t-14.5 -37t14.5 -37t40.5 -14zM-183 841v152h55v-152h-55z" />
    <glyph glyph-name="nikhahit_maiTho-thai" 
d="M-157 616q-43 0 -70 21.5t-27 63.5t27 63.5t70 21.5t70.5 -21.5t27.5 -63.5t-27.5 -63.5t-70.5 -21.5zM-157 650q26 0 41 14t15 37t-15 37t-41 14t-40.5 -14t-14.5 -37t14.5 -37t40.5 -14zM-262 841v26q34 6 55 22t21 38q0 27 -29 27q-10 0 -19.5 -3.5t-17.5 -7.5l-14 34
q16 9 34 12.5t31 3.5q26 0 44.5 -14t18.5 -42q0 -14 -4.5 -27.5t-16.5 -23.5h122v-45h-225z" />
    <glyph glyph-name="nikhahit_maiTri-thai" 
d="M-157 616q-43 0 -70 21.5t-27 63.5t27 63.5t70 21.5t70.5 -21.5t27.5 -63.5t-27.5 -63.5t-70.5 -21.5zM-157 650q26 0 41 14t15 37t-15 37t-41 14t-40.5 -14t-14.5 -37t14.5 -37t40.5 -14zM-226 836q-36 0 -57 22.5t-21 56.5q0 35 22 56.5t60 23.5l49 -34l47 34
q33 -3 55.5 -20.5t22.5 -47.5q0 -31 -19 -48h79v-38h-144v26q18 5 29 18t11 31t-10 28.5t-24 13.5l-44 -31h-6l-46 32q-15 -2 -26.5 -12.5t-11.5 -31.5q0 -18 10.5 -30.5t31.5 -12.5q11 0 20 3l8 -32q-14 -7 -36 -7z" />
    <glyph glyph-name="nikhahit_maiChattawa-thai" 
d="M-157 616q-43 0 -70 21.5t-27 63.5t27 63.5t70 21.5t70.5 -21.5t27.5 -63.5t-27.5 -63.5t-70.5 -21.5zM-157 650q26 0 41 14t15 37t-15 37t-41 14t-40.5 -14t-14.5 -37t14.5 -37t40.5 -14zM-182 841v56h-58v42h58v56h50v-56h58v-42h-58v-56h-50z" />
    <glyph glyph-name="uni0E3A.aalt" 
d="M-117 -330q-51 0 -51 50t51 50t51 -50t-51 -50z" />
    <glyph glyph-name="uni0E38.aalt" 
d="M-140 -423v123q0 24 -20 24q-5 0 -11 -1t-11 -3l-4 41q12 5 24.5 6.5t21.5 1.5q26 0 39.5 -13t13.5 -35v-144h-53z" />
    <glyph glyph-name="uni0E39.aalt" 
d="M-198 -423q-56 0 -84.5 25t-28.5 69v36q0 26 -33 17l-6 42q10 3 21 4t17 1q52 0 52 -49v-48q0 -24 14.5 -39.5t46.5 -15.5t46.5 15.5t14.5 39.5v94h52v-94q0 -46 -28 -71.5t-84 -25.5z" />
    <glyph glyph-name="maiChattawa-thai.narrow" 
d="M-360 636v76h-80v44h80v80h51v-80h81v-44h-81v-76h-51z" />
    <glyph glyph-name="nikhahit-thai.narrow" 
d="M-329 616q-43 0 -70 21.5t-27 63.5t27 63.5t70 21.5t70.5 -21.5t27.5 -63.5t-27.5 -63.5t-70.5 -21.5zM-329 650q26 0 41 14t15 37t-15 37t-41 14t-40.5 -14t-14.5 -37t14.5 -37t40.5 -14z" />
    <glyph glyph-name="nikhahit_maiEk-thai.narrow" 
d="M-317 616q-43 0 -70 21.5t-27 63.5t27 63.5t70 21.5t70.5 -21.5t27.5 -63.5t-27.5 -63.5t-70.5 -21.5zM-317 650q26 0 41 14t15 37t-15 37t-41 14t-40.5 -14t-14.5 -37t14.5 -37t40.5 -14zM-343 841v152h55v-152h-55z" />
    <glyph glyph-name="nikhahit_maiTho-thai.narrow" 
d="M-316 616q-43 0 -70 21.5t-27 63.5t27 63.5t70 21.5t70.5 -21.5t27.5 -63.5t-27.5 -63.5t-70.5 -21.5zM-316 650q26 0 41 14t15 37t-15 37t-41 14t-40.5 -14t-14.5 -37t14.5 -37t40.5 -14zM-421 841v26q34 6 55 22t21 38q0 27 -29 27q-10 0 -19.5 -3.5t-17.5 -7.5l-14 34
q16 9 34 12.5t31 3.5q26 0 44.5 -14t18.5 -42q0 -14 -4.5 -27.5t-16.5 -23.5h122v-45h-225z" />
    <glyph glyph-name="nikhahit_maiTri-thai.narrow" 
d="M-317 616q-43 0 -70 21.5t-27 63.5t27 63.5t70 21.5t70.5 -21.5t27.5 -63.5t-27.5 -63.5t-70.5 -21.5zM-317 650q26 0 41 14t15 37t-15 37t-41 14t-40.5 -14t-14.5 -37t14.5 -37t40.5 -14zM-386 836q-36 0 -57 22.5t-21 56.5q0 35 22 56.5t60 23.5l49 -34l47 34
q33 -3 55.5 -20.5t22.5 -47.5q0 -31 -19 -48h79v-38h-144v26q18 5 29 18t11 31t-10 28.5t-24 13.5l-44 -31h-6l-46 32q-15 -2 -26.5 -12.5t-11.5 -31.5q0 -18 10.5 -30.5t31.5 -12.5q11 0 20 3l8 -32q-14 -7 -36 -7z" />
    <glyph glyph-name="nikhahit_maiChattawa-thai.narrow" 
d="M-316 616q-43 0 -70 21.5t-27 63.5t27 63.5t70 21.5t70.5 -21.5t27.5 -63.5t-27.5 -63.5t-70.5 -21.5zM-316 650q26 0 41 14t15 37t-15 37t-41 14t-40.5 -14t-14.5 -37t14.5 -37t40.5 -14zM-341 841v56h-58v42h58v56h50v-56h58v-42h-58v-56h-50z" />
    </font>
</defs>
</svg>
