<?xml version="1.0" standalone="no"?>
<!DOCTYPE svg PUBLIC "-//W3C//DTD SVG 1.1//EN" "http://www.w3.org/Graphics/SVG/1.1/DTD/svg11.dtd" >
<svg xmlns="http://www.w3.org/2000/svg" xmlns:xlink="http://www.w3.org/1999/xlink" version="1.1">
<metadata>
Created by FontForge 20170731 at Wed Sep 20 01:00:59 2017
 By Aleksey,,,
Copyright 2016 Google Inc. All Rights Reserved.
</metadata>
<defs>
<font id="NotoSansThai-Medium" horiz-adv-x="0" >
  <font-face 
    font-family="Noto Sans Thai Med"
    font-weight="500"
    font-stretch="normal"
    units-per-em="1000"
    panose-1="2 11 6 2 4 5 4 2 2 4"
    ascent="800"
    descent="-200"
    bbox="-704 -437 875 1017"
    underline-thickness="50"
    underline-position="-175"
    unicode-range="U+000D-25CC"
  />
<missing-glyph horiz-adv-x="364" 
d="M33 0v666h265v-666h-265zM66 33h199v600h-199v-600z" />
    <glyph glyph-name="ru_lakkhangyao-thai" unicode="&#xe24;&#xe45;" horiz-adv-x="948" 
d="M424 -204v551q0 67 -37 95.5t-92 28.5q-58 0 -90 -23.5t-33 -59.5l106 -50l-8 -52q-38 -1 -62 -21.5t-24 -70.5v-80q0 -42 41 -42q21 0 37 6l13 -72q-19 -9 -38 -12.5t-39 -3.5q-50 0 -85 24.5t-35 87.5v86q0 62 27 90t70 40l1 4l-113 41v31q0 43 27 80.5t79 61t126 23.5
q72 0 118.5 -24t70.5 -67h3q20 43 67.5 67t115.5 24q98 0 149.5 -51.5t51.5 -142.5v-569h-107v557q0 65 -33 91.5t-82 26.5q-50 0 -84 -27.5t-34 -94.5v-553h-107z" />
    <glyph glyph-name="lu_lakkhangyao-thai" unicode="&#xe26;&#xe45;" horiz-adv-x="953" 
d="M428 -204v551q0 67 -37 95.5t-92 28.5q-58 0 -90 -23.5t-32 -59.5l106 -49l-9 -53q-35 0 -55.5 -23t-20.5 -72v-93q0 -62 -29 -85t-73 -23q-43 0 -76 17l11 68q15 -5 31 -5q31 0 31 38v87q0 58 22 85.5t64 37.5l1 4l-113 41v31q0 43 27.5 80.5t79.5 61t126 23.5
q71 0 118 -24t70 -67h3q20 43 67.5 67t115.5 24q98 0 149.5 -51.5t51.5 -142.5v-569h-107v557q0 65 -33 91.5t-83 26.5t-83.5 -27.5t-33.5 -94.5v-553h-107z" />
    <glyph glyph-name=".notdef" horiz-adv-x="364" 
d="M33 0v666h265v-666h-265zM66 33h199v600h-199v-600z" />
    <glyph glyph-name=".null" 
 />
    <glyph glyph-name="nonmarkingreturn" horiz-adv-x="333" 
 />
    <glyph glyph-name="NULL" 
 />
    <glyph glyph-name="NULL" 
 />
    <glyph glyph-name="CR" unicode="&#xd;" horiz-adv-x="260" 
 />
    <glyph glyph-name="space" unicode=" " horiz-adv-x="260" 
 />
    <glyph glyph-name="hyphen" unicode="-" horiz-adv-x="322" 
d="M37 223v90h248v-90h-248z" />
    <glyph glyph-name="uni00A0" unicode="&#xa0;" horiz-adv-x="260" 
 />
    <glyph glyph-name="uni02BC" unicode="&#x2bc;" horiz-adv-x="187" 
d="M165 714l7 -11q-13 -53 -35.5 -116.5t-45.5 -117.5h-79q14 57 27 125t20 120h106z" />
    <glyph glyph-name="uni02D7" unicode="&#x2d7;" horiz-adv-x="218" 
d="M206 248h-194v55h194v-55z" />
    <glyph glyph-name="tildecomb" unicode="&#x303;" 
d="M-120 741q-6 -64 -35 -99t-73 -35q-26 0 -51.5 13.5t-49 27.5t-44.5 14q-36 0 -48 -56h-58q6 64 34.5 99t75.5 35q27 0 52 -14t48 -27.5t44 -13.5q34 0 48 56h57z" />
    <glyph glyph-name="uni0331" unicode="&#x331;" 
d="M-120 -76v-80h-294v80h294z" />
    <glyph glyph-name="uni0E01" unicode="&#xe01;" horiz-adv-x="607" 
d="M73 0v183q0 63 27 93t71 42l1 4l-109 41v31q0 43 27.5 80.5t79.5 61t126 23.5q65 0 118 -20.5t84 -64t31 -111.5v-363h-107v354q0 62 -36 89.5t-92 27.5q-57 0 -89 -23.5t-33 -59.5l103 -50l-9 -53q-38 -1 -62 -25t-24 -74v-186h-107z" />
    <glyph glyph-name="uni0E02" unicode="&#xe02;" horiz-adv-x="560" 
d="M280 -11q-99 0 -152 47t-53 139v55q0 47 13 75.5t29 49.5q17 23 28.5 40t11.5 40q0 20 -10 28.5t-25 8.5q-21 0 -49 -13l-22 72q21 13 49.5 18.5t49.5 5.5q58 0 83 -29.5t25 -76.5q0 -35 -11.5 -59t-27.5 -47q-17 -25 -27.5 -47t-10.5 -59v-54q0 -63 29.5 -85.5
t69.5 -22.5q96 0 96 93v380h107v-384q0 -84 -51.5 -129.5t-151.5 -45.5z" />
    <glyph glyph-name="uni0E03" unicode="&#xe03;" horiz-adv-x="564" 
d="M281 -11q-205 0 -205 188v54q0 55 20 88t47 64q14 15 25.5 29t13.5 29l-3 2q-11 -7 -24 -12t-30 -5q-36 0 -59 25t-23 72v25h86q0 -56 31 -56q10 0 21.5 4t21.5 12l18 40h58v-51q0 -31 -2.5 -52t-11.5 -41t-28 -45q-15 -19 -27 -34.5t-19.5 -36t-7.5 -54.5v-50
q0 -64 28.5 -86.5t69.5 -22.5q100 0 100 93v380h106v-384q0 -84 -53 -129.5t-153 -45.5z" />
    <glyph glyph-name="uni0E04" unicode="&#xe04;" horiz-adv-x="623" 
d="M78 0v343q0 104 56 160t178 56q123 0 178.5 -56t55.5 -160v-343h-107v343q0 128 -128 128q-127 0 -127 -128v-104l3 -1q21 39 51.5 51.5t84.5 12.5h31v-84h-31q-57 0 -87 -17t-41 -45t-11 -61v-95h-106z" />
    <glyph glyph-name="uni0E05" unicode="&#xe05;" horiz-adv-x="632" 
d="M78 0v420q0 70 36.5 104.5t98.5 34.5q37 0 64 -13t36 -42h5q10 29 36.5 42t63.5 13q63 0 99.5 -34.5t36.5 -104.5v-420h-107v407q0 37 -14.5 50.5t-37.5 13.5q-48 0 -52 -57h-57q-4 57 -53 57q-22 0 -36.5 -13.5t-14.5 -50.5v-168l3 -1q22 39 53.5 51.5t87.5 12.5h31v-84
h-31q-59 0 -89.5 -17t-41.5 -45t-11 -61v-95h-106z" />
    <glyph glyph-name="uni0E06" unicode="&#xe06;" horiz-adv-x="610" 
d="M349 -10q-68 0 -114 26t-63 71h-6l-8 -87h-84v226q0 56 19 90.5t49 66.5q20 20 30 32.5t11 25.5l-3 2q-11 -7 -24.5 -12t-29.5 -5q-36 0 -59 25t-23 72v25h86q0 -56 31 -56q10 0 21.5 4t21.5 12l18 40h60v-51q0 -29 -3 -50t-13 -41t-30 -47q-16 -21 -28.5 -37t-20 -36
t-7.5 -53v-8q0 -66 36.5 -105t100.5 -39q108 0 108 117v350h107v-364q0 -98 -48.5 -146t-134.5 -48z" />
    <glyph glyph-name="uni0E07" unicode="&#xe07;" horiz-adv-x="547" 
d="M169 0l-168 548h108l141 -458h10q21 0 41.5 11t34.5 28q27 31 40 78t13 93q0 78 -34 122t-94 44q-26 0 -41 -6l-24 84q22 6 41 8t33 2q51 0 90.5 -14.5t67.5 -42.5q34 -35 51.5 -86t17.5 -112q0 -79 -24.5 -139.5t-60.5 -96.5q-30 -29 -73 -46t-112 -17h-58z" />
    <glyph glyph-name="uni0E08" unicode="&#xe08;" horiz-adv-x="540" 
d="M138 0v240h-71v76h170v-232h12q61 0 93 45t32 147q0 106 -38 151t-125 45q-49 0 -92 -13t-81 -38v96q31 17 80.5 29.5t108.5 12.5q139 0 197.5 -73t58.5 -210q0 -132 -56.5 -204t-192.5 -72h-96z" />
    <glyph glyph-name="uni0E09" unicode="&#xe09;" horiz-adv-x="610" 
d="M260 -10q-85 0 -133 44t-48 138v141h105v-123q0 -109 105 -109q64 0 100 40.5t36 110.5v86q0 89 -41 121.5t-113 32.5q-49 0 -95 -13t-86 -38v96q29 17 82.5 29.5t116.5 12.5q129 0 186 -60t57 -175v-324h-85l-8 81h-6q-17 -40 -61.5 -65.5t-111.5 -25.5z" />
    <glyph glyph-name="uni0E0A" unicode="&#xe0a;" horiz-adv-x="564" 
d="M283 -11q-101 0 -154 47t-53 139v55q0 46 12.5 75t28.5 50q17 23 28.5 40t11.5 40q0 20 -10 28.5t-25 8.5q-21 0 -49 -13l-22 72q21 13 49.5 18.5t49.5 5.5q58 0 83 -29.5t25 -76.5q0 -35 -11.5 -59t-27.5 -47q-17 -25 -27 -47t-10 -59v-53q0 -64 29.5 -86.5t71.5 -22.5
q96 0 96 93v128q0 34 -16 53.5t-52 19.5h-5v63h6q38 0 54.5 18.5t20 45.5t3.5 52h107q0 -56 -14.5 -93.5t-57.5 -53.5v-4q39 -11 49.5 -40.5t10.5 -59.5v-133q0 -84 -51 -129.5t-151 -45.5z" />
    <glyph glyph-name="uni0E0B" unicode="&#xe0b;" horiz-adv-x="570" 
d="M284 -11q-100 0 -152.5 47.5t-52.5 140.5v54q0 55 18.5 88t45.5 64q13 15 25 29t14 29l-3 2q-11 -7 -24 -12t-30 -5q-36 0 -59 25t-23 72v25h86q0 -56 31 -56q10 0 21.5 4t21.5 12l18 40h56v-51q0 -31 -2 -52t-10.5 -41t-27.5 -45q-15 -19 -26.5 -34.5t-18 -34
t-6.5 -48.5v-58q0 -44 13 -67.5t35.5 -32.5t49.5 -9q101 0 101 93v128q0 34 -16.5 53.5t-51.5 19.5h-3v63h4q38 0 54 18.5t20 45.5t4 52h106q0 -56 -14 -93t-58 -53v-4q37 -10 49.5 -38.5t12.5 -70.5v-125q0 -84 -53.5 -129.5t-154.5 -45.5z" />
    <glyph glyph-name="uni0E0C" unicode="&#xe0c;" horiz-adv-x="912" 
d="M198 -10q-50 0 -85 24.5t-35 87.5v87q0 61 27 89t70 40l1 4l-113 41v31q0 45 27 82.5t77.5 60t121.5 22.5q61 0 112 -20t81.5 -62.5t30.5 -109.5v-132q0 -70 34 -112t88 -42q42 0 67 25.5t25 81.5v360h107v-374q0 -98 -45 -141t-123 -43q-56 0 -99 26t-61 71h-6l-7 -87
h-86v356q0 65 -35.5 90.5t-84.5 25.5q-50 0 -81.5 -21.5t-33.5 -61.5l106 -50l-8 -53q-38 -1 -62 -21.5t-24 -70.5v-80q0 -42 42 -42q20 0 36 6l13 -72q-19 -9 -38 -12.5t-39 -3.5z" />
    <glyph glyph-name="uni0E0D" unicode="&#xe0d;" horiz-adv-x="917" 
d="M598 -180q-43 0 -85.5 8.5t-79.5 25.5v98q30 -20 72.5 -31t84.5 -11q62 0 100 29t38 108v27h-5q-19 -30 -57.5 -50.5t-94.5 -20.5q-48 0 -86 18t-59.5 57.5t-21.5 103.5v175q0 45 -16.5 70t-43.5 35t-58 10q-49 0 -80.5 -21t-33.5 -62l106 -50l-8 -53q-38 -1 -62 -21.5
t-24 -70.5v-80q0 -42 41 -42q21 0 37 6l13 -72q-19 -9 -38 -12.5t-39 -3.5q-50 0 -85 24.5t-35 87.5v87q0 61 27 89t70 40l1 4l-113 41v31q0 46 27 83.5t77.5 59.5t119.5 22q61 0 111.5 -19.5t81 -61.5t30.5 -111v-167q0 -56 25.5 -81t66.5 -25q56 0 89.5 41.5t33.5 111.5
v301h107v-493q0 -119 -60 -177t-174 -58z" />
    <glyph glyph-name="uni0E0E" unicode="&#xe0e;" horiz-adv-x="613" 
d="M99 -204v17q0 65 41.5 100.5t118.5 35.5q52 0 96 -15.5t73 -37.5v458q0 62 -37 89.5t-92 27.5q-58 0 -90 -23.5t-32 -59.5l106 -49l-9 -53q-35 0 -55.5 -23t-20.5 -72v-91q0 -62 -29 -85t-73 -23q-40 0 -76 17l11 68q15 -5 31 -5q31 0 31 38v85q0 58 22 85.5t64 37.5l1 4
l-113 41v31q0 43 27 80.5t79.5 61t126.5 23.5q66 0 119 -20.5t84.5 -64t31.5 -111.5v-567h-87q-16 18 -43 33t-59 24.5t-62 9.5q-41 0 -60 -17.5t-19 -40.5v-9h-106z" />
    <glyph glyph-name="uni0E0F" unicode="&#xe0f;" horiz-adv-x="613" 
d="M72 -204v28q0 57 35 86.5t84 29.5q44 0 70.5 -16.5t41.5 -43.5l62 53l63 -46v467q0 62 -37 89.5t-92 27.5q-58 0 -90 -23.5t-32 -59.5l106 -49l-9 -53q-35 0 -55.5 -23t-20.5 -72v-91q0 -62 -29 -85t-73 -23q-40 0 -76 17l11 68q15 -5 31 -5q31 0 31 38v85q0 58 22 85.5
t64 37.5l1 4l-113 41v31q0 43 27 80.5t79.5 61t126.5 23.5q66 0 119 -20.5t84.5 -64t31.5 -111.5v-567h-93l-73 55l-58 -55h-26q-12 25 -29.5 43.5t-42.5 18.5q-26 0 -36.5 -18t-10.5 -36v-8h-94z" />
    <glyph glyph-name="uni0E10" unicode="&#xe10;" horiz-adv-x="554" 
d="M135 0v240h-70v76h170v-232h11q62 0 94 45t32 147q0 106 -38 151t-125 45q-49 0 -92 -13t-81 -38v96q31 17 80.5 29.5t108.5 12.5q47 0 83.5 -9t61.5 -29q21 8 36 23.5t15 39.5h100q0 -43 -26 -73.5t-71 -44.5q57 -59 57 -192q0 -130 -56.5 -202t-192.5 -72h-97zM41 -204
v26q0 58 33 87.5t78 29.5q40 0 64.5 -17.5t40.5 -42.5l57 54l68 -52v73h93v-158h-98l-63 54l-53 -54h-21q-11 25 -27.5 43.5t-41.5 18.5q-24 0 -33 -18t-9 -36v-8h-88z" />
    <glyph glyph-name="uni0E11" unicode="&#xe11;" horiz-adv-x="633" 
d="M94 0v213q0 58 7.5 93.5t35.5 67.5q19 22 28 33t12 18t5 16l-3 2q-11 -7 -24 -12t-30 -5q-36 0 -59 25t-23 72v25h85q0 -31 7.5 -43.5t24.5 -12.5q8 0 17.5 3.5t17.5 12.5l19 40h53v-74h4q29 46 66 65t79 19q74 0 106.5 -39.5t32.5 -102.5v-416h-107v386q0 82 -63 82
q-31 0 -61 -21.5t-68 -69.5q-21 -27 -33 -48.5t-17 -48.5t-5 -69v-211h-107z" />
    <glyph glyph-name="uni0E12" unicode="&#xe12;" horiz-adv-x="915" 
d="M271 -10q-83 0 -129 36.5t-64 102t-18 152.5q0 151 41 214t116 63q33 0 57.5 -12.5t35.5 -42.5h4q11 31 37.5 43t60.5 12q59 0 93.5 -35t34.5 -106v-182q0 -70 33.5 -112t89.5 -42q40 0 65 25.5t25 81.5v360h107v-374q0 -98 -45 -141t-118 -43q-65 0 -106 27.5t-59 69.5
h-5l-8 -87h-86v408q0 36 -12.5 49t-33.5 13q-22 0 -34 -13t-15 -43h-56q-4 33 -17 44.5t-30 11.5q-34 0 -51 -40t-17 -146q0 -68 9.5 -114t35.5 -70t75 -24q17 0 29 2t22 5l11 -80q-16 -7 -35.5 -10t-42.5 -3z" />
    <glyph glyph-name="uni0E13" unicode="&#xe13;" horiz-adv-x="917" 
d="M198 -10q-50 0 -85 24.5t-35 87.5v87q0 61 27 89t70 40l1 4l-113 41v31q0 46 27 83.5t77.5 59.5t119.5 22q61 0 111.5 -19.5t81 -61.5t30.5 -111v-179q0 -56 25 -81.5t67 -25.5q56 0 89.5 42t33.5 112v313h107v-548h-86l-8 87h-6q-17 -45 -59.5 -71t-98.5 -26
q-79 0 -124.5 42t-45.5 140v185q0 45 -16.5 70t-43.5 35t-58 10q-49 0 -80.5 -21t-33.5 -62l106 -50l-8 -53q-38 -1 -62 -21.5t-24 -70.5v-80q0 -42 42 -42q20 0 36 6l13 -72q-19 -9 -38 -12.5t-39 -3.5z" />
    <glyph glyph-name="uni0E14" unicode="&#xe14;" horiz-adv-x="621" 
d="M268 -10q-81 0 -127.5 37t-65.5 100t-19 142q0 114 32 177t89 88t132 25q125 0 180 -53t55 -143v-363h-107v353q0 58 -28.5 88t-97.5 30q-43 0 -76 -16t-52 -59.5t-19 -126.5q0 -55 11 -98t37.5 -68t73.5 -25q28 0 49 7l10 -82q-16 -7 -37 -10t-40 -3z" />
    <glyph glyph-name="uni0E15" unicode="&#xe15;" horiz-adv-x="641" 
d="M276 -10q-86 0 -132.5 38t-65 104t-18.5 152q0 146 42 210t122 64q35 0 60 -12.5t37 -42.5h4q11 31 38.5 43t63.5 12q66 0 101.5 -35t35.5 -106v-417h-107v408q0 36 -15 49t-39 13q-26 0 -38 -13t-15 -43h-57q-4 33 -19.5 44.5t-34.5 11.5q-36 0 -54 -43t-18 -144
q0 -65 10 -111.5t36.5 -71t77.5 -24.5q17 0 29 2t23 5l11 -80q-16 -7 -36 -10t-42 -3z" />
    <glyph glyph-name="uni0E16" unicode="&#xe16;" horiz-adv-x="609" 
d="M198 -10q-50 0 -85 24.5t-35 87.5v86q0 62 27 90t70 40l1 4l-113 41v31q0 43 27.5 80.5t79.5 61t126 23.5q66 0 119 -20.5t84.5 -64t31.5 -111.5v-363h-107v354q0 62 -37 89.5t-92 27.5q-58 0 -90 -23.5t-33 -59.5l106 -50l-8 -52q-38 -1 -62 -18t-24 -66v-88
q0 -42 42 -42q20 0 36 6l13 -72q-19 -9 -38 -12.5t-39 -3.5z" />
    <glyph glyph-name="uni0E17" unicode="&#xe17;" horiz-adv-x="619" 
d="M82 0v548h76l17 -87h5q17 44 61.5 70.5t109.5 26.5q91 0 141 -47.5t50 -148.5v-362h-107v350q0 117 -110 117q-65 0 -100.5 -46.5t-35.5 -119.5v-301h-107z" />
    <glyph glyph-name="uni0E18" unicode="&#xe18;" horiz-adv-x="548" 
d="M277 -11q-63 0 -113 11.5t-87 25.5v224h96v-162q14 -7 42.5 -12t59.5 -5q33 0 61 7.5t45.5 27.5t17.5 57t-18.5 55t-55 30t-89.5 27q-60 17 -99 34.5t-58.5 43t-19.5 67.5q0 139 218 139q68 0 116 -11t72 -22v-89q-27 13 -81 25.5t-116 12.5q-46 0 -74 -10.5t-28 -37.5
q0 -29 38 -42.5t103 -31.5q55 -15 99 -35.5t70.5 -56t26.5 -96.5q0 -53 -22 -92.5t-71.5 -61.5t-132.5 -22z" />
    <glyph glyph-name="uni0E19" unicode="&#xe19;" horiz-adv-x="623" 
d="M266 -10q-89 0 -138.5 48t-49.5 149v361h107v-350q0 -117 109 -117q65 0 100.5 43.5t35.5 122.5v301h107v-548h-85l-8 82h-6q-18 -40 -61 -66t-111 -26z" />
    <glyph glyph-name="uni0E1A" unicode="&#xe1a;" horiz-adv-x="613" 
d="M306 -11q-122 0 -175 56t-53 160v343h107v-346q0 -62 29.5 -93.5t91.5 -31.5q63 0 92.5 31.5t29.5 93.5v346h107v-343q0 -104 -53.5 -160t-175.5 -56z" />
    <glyph glyph-name="uni0E1B" unicode="&#xe1b;" horiz-adv-x="614" 
d="M306 -11q-122 0 -175 56t-53 160v343h107v-346q0 -62 29.5 -93.5t91.5 -31.5q63 0 92.5 31.5t29.5 93.5v543h107v-540q0 -104 -53.5 -160t-175.5 -56z" />
    <glyph glyph-name="uni0E1C" unicode="&#xe1c;" horiz-adv-x="658" 
d="M83 0v444q0 45 17 69.5t45.5 34.5t61.5 10q17 0 35 -3.5t32 -10.5l-14 -76q-9 3 -18.5 4t-15.5 1q-22 0 -31.5 -11.5t-9.5 -31.5v-137q0 -29 -0.5 -63t-4.5 -82h4q20 44 37 73t30 55l49 83h56l48 -83q22 -40 37 -67.5t30 -60.5h5q-4 48 -5 82t-1 63v255h103v-548h-98
l-145 249h-4l-145 -249h-98z" />
    <glyph glyph-name="uni0E1D" unicode="&#xe1d;" horiz-adv-x="661" 
d="M83 0v444q0 45 17 69.5t45.5 34.5t61.5 10q17 0 35 -3.5t32 -10.5l-14 -76q-9 3 -18.5 4t-15.5 1q-22 0 -31.5 -11.5t-9.5 -31.5v-137q0 -29 -0.5 -63t-4.5 -82h4q20 44 37 73t30 55l49 83h56l48 -83q22 -40 37 -67.5t30 -60.5h5q-4 48 -5 82t-1 63v452h103v-745h-98
l-145 249h-4l-145 -249h-98z" />
    <glyph glyph-name="uni0E1E" unicode="&#xe1e;" horiz-adv-x="704" 
d="M136 0l-98 548h107l36 -225q4 -28 8.5 -72t11.5 -105h3q13 61 25 105.5t20 74.5l63 222h79l64 -222q8 -30 19.5 -74.5t25.5 -105.5h3q6 61 10.5 105t9.5 72l36 225h107l-97 -548h-105l-83 276q-8 28 -14.5 57t-11.5 70h-4q-7 -41 -14 -69.5t-15 -57.5l-83 -276h-103z" />
    <glyph glyph-name="uni0E1F" unicode="&#xe1f;" horiz-adv-x="693" 
d="M132 0l-94 548h107l32 -225q1 -10 4.5 -38.5t8 -65.5t7.5 -73h5q8 43 19 88t25 92l64 222h78l63 -222q13 -47 24 -92t21 -88h3q6 58 10.5 103.5t7.5 73.5l54 422h104l-110 -745h-105l-83 276q-7 26 -13 56t-13 71h-4q-7 -41 -13 -69.5t-15 -57.5l-83 -276h-104z" />
    <glyph glyph-name="uni0E20" unicode="&#xe20;" horiz-adv-x="613" 
d="M96 -10q-43 0 -76 17l11 68q15 -5 31 -5q31 0 31 38v87q0 58 22 85.5t64 37.5l1 4l-113 41v31q0 43 27 80.5t79.5 61t126.5 23.5q66 0 119 -20.5t84.5 -64t31.5 -111.5v-363h-107v354q0 62 -37 89.5t-92 27.5q-58 0 -90 -23.5t-32 -59.5l106 -49l-9 -53q-35 0 -55.5 -23
t-20.5 -72v-93q0 -62 -29 -85t-73 -23z" />
    <glyph glyph-name="uni0E21" unicode="&#xe21;" horiz-adv-x="623" 
d="M359 -10q-66 0 -111.5 26t-62.5 71h-6l-8 -87h-85v548h107v-301q0 -79 36 -122.5t102 -43.5q108 0 108 117v350h107v-364q0 -98 -49 -146t-138 -48z" />
    <glyph glyph-name="uni0E22" unicode="&#xe22;" horiz-adv-x="602" 
d="M295 -10q-125 0 -177 46.5t-52 123.5q0 46 13.5 73t34.5 41t43 18v4q-21 6 -42.5 20t-36 39t-14.5 63q0 35 16.5 66.5t53 51.5t97.5 20q26 0 53 -4t42 -12l-18 -78q-10 3 -27 6t-34 3q-38 0 -56.5 -18t-18.5 -47q0 -32 16 -48.5t41.5 -22.5t52.5 -6h20v-73h-20
q-55 0 -81 -20t-26 -65q0 -25 10.5 -47t36.5 -35.5t74 -13.5q70 0 96 29t26 78v366h107v-360q0 -104 -55.5 -151t-174.5 -47z" />
    <glyph glyph-name="uni0E23" unicode="&#xe23;" horiz-adv-x="497" 
d="M242 -11q-59 0 -112.5 12t-91.5 30l31 86q31 -13 76.5 -27t95.5 -14q49 0 80 17.5t31 51.5q0 31 -29 51t-88 39q-91 29 -139.5 66.5t-48.5 108.5q0 68 54.5 108.5t163.5 40.5q50 0 93.5 -9t67.5 -23v-88q-26 12 -70.5 23t-90.5 11q-60 0 -85.5 -17.5t-25.5 -41.5
q0 -31 30.5 -48t103.5 -42q50 -17 88.5 -38t60.5 -52.5t22 -80.5q0 -43 -20.5 -80.5t-68 -60.5t-128.5 -23z" />
    <glyph glyph-name="uni0E24" unicode="&#xe24;" horiz-adv-x="609" 
d="M198 -10q-50 0 -85 24.5t-35 87.5v86q0 62 27 90t70 40l1 4l-113 41v31q0 43 27.5 80.5t79.5 61t126 23.5q66 0 119 -20.5t84.5 -64t31.5 -111.5v-567h-107v558q0 62 -37 89.5t-92 27.5q-58 0 -90 -23.5t-33 -59.5l106 -50l-8 -52q-38 -1 -62 -18t-24 -66v-88
q0 -42 42 -42q20 0 36 6l13 -72q-19 -9 -38 -12.5t-39 -3.5z" />
    <glyph glyph-name="uni0E25" unicode="&#xe25;" horiz-adv-x="579" 
d="M226 -10q-87 0 -133.5 40.5t-46.5 116.5q0 82 59 128t193 54l98 7v26q0 60 -28 85.5t-93 25.5q-51 0 -98 -14t-86 -37v95q29 15 79.5 28.5t115.5 13.5q104 0 160 -45.5t56 -149.5v-364h-106v251l-85 -6q-89 -7 -123.5 -29.5t-34.5 -65.5q0 -41 26 -60t71 -19q29 0 55 8
l13 -75q-39 -14 -92 -14z" />
    <glyph glyph-name="uni0E26" unicode="&#xe26;" horiz-adv-x="613" 
d="M96 -10q-43 0 -76 17l11 68q15 -5 31 -5q31 0 31 38v87q0 58 22 85.5t64 37.5l1 4l-113 41v31q0 43 27 80.5t79.5 61t126.5 23.5q66 0 119 -20.5t84.5 -64t31.5 -111.5v-567h-107v558q0 62 -37 89.5t-92 27.5q-58 0 -90 -23.5t-32 -59.5l106 -49l-9 -53q-35 0 -55.5 -23
t-20.5 -72v-93q0 -62 -29 -85t-73 -23z" />
    <glyph glyph-name="uni0E27" unicode="&#xe27;" horiz-adv-x="498" 
d="M198 -11q-42 0 -81 9t-80 31l32 80q22 -13 51 -22.5t64 -9.5q68 0 107 50.5t39 148.5q0 95 -40 145t-122 50q-32 0 -65.5 -7.5t-58.5 -21.5v89q29 15 65.5 21.5t73.5 6.5q91 0 147.5 -35t83 -98.5t26.5 -149.5q0 -135 -61.5 -211t-180.5 -76z" />
    <glyph glyph-name="uni0E28" unicode="&#xe28;" horiz-adv-x="637" 
d="M78 0v343q0 104 56 160t178 56q42 0 76 -8t59 -26q18 9 30 23.5t12 35.5h100q0 -39 -21.5 -68t-59.5 -44q20 -22 29 -55.5t9 -74.5v-342h-107v343q0 128 -127 128q-128 0 -128 -128v-104l3 -1q22 39 52 51.5t85 12.5h30v-84h-30q-58 0 -88 -17t-41 -45t-11 -61v-95h-106z
" />
    <glyph glyph-name="uni0E29" unicode="&#xe29;" horiz-adv-x="650" 
d="M314 -11q-128 0 -182 57t-54 163v339h106v-342q0 -65 31 -97.5t100 -32.5q67 0 97.5 31.5t30.5 98.5v18h-67q-44 0 -69 13.5t-35.5 34.5t-10.5 44q0 16 4.5 33t12.5 28l77 -14q-6 -11 -6 -29q0 -14 7.5 -24t24.5 -10h62v248h107v-248h62v-76h-62v-15q0 -106 -54 -163
t-182 -57z" />
    <glyph glyph-name="uni0E2A" unicode="&#xe2a;" horiz-adv-x="581" 
d="M226 -10q-87 0 -133.5 40.5t-46.5 116.5q0 82 59 128t193 54l98 7v26q0 60 -28 85.5t-93 25.5q-51 0 -98 -14t-86 -37v95q29 15 79.5 28.5t114.5 13.5q40 0 72 -6.5t53 -23.5q15 9 25 22.5t10 32.5h100q0 -37 -20 -65t-54 -44q16 -19 23.5 -47t7.5 -64v-364h-106v251
l-85 -6q-89 -7 -123.5 -29.5t-34.5 -65.5q0 -41 26 -60t71 -19q29 0 55 8l13 -75q-39 -14 -92 -14z" />
    <glyph glyph-name="uni0E2B" unicode="&#xe2b;" horiz-adv-x="597" 
d="M86 0v548h106v-228h4l211 228h122v-4l-156 -162q78 -8 118.5 -57.5t40.5 -126.5v-198h-107v189q0 53 -30 83t-95 34l-108 -112v-194h-106z" />
    <glyph glyph-name="uni0E2C" unicode="&#xe2c;" horiz-adv-x="680" 
d="M122 0l-84 548h107l30 -249q4 -29 8.5 -72t5.5 -100h4q15 55 26 89.5t24 69.5l59 164h72l61 -164q12 -33 23.5 -68.5t25.5 -90.5h5q0 41 4 86t11 86l20 109q11 65 -14.5 94t-89.5 29h-51v74h81q70 0 95 28t25 76v5h106v-5q0 -57 -25 -97.5t-84 -52.5v-3q29 -12 43.5 -35
t18 -50t-0.5 -52l-71 -419h-108l-68 202q-14 40 -23 72t-18 79h-4q-9 -50 -18 -83t-21 -69l-71 -201h-104z" />
    <glyph glyph-name="uni0E2D" unicode="&#xe2d;" horiz-adv-x="580" 
d="M279 -11q-113 0 -168 57t-55 178q0 20 1.5 45t4.5 47h219v-77h-118v-18q0 -85 28.5 -116.5t85.5 -31.5q41 0 71.5 16.5t47 58.5t16.5 120q0 104 -35.5 153.5t-124.5 49.5q-47 0 -92.5 -12.5t-82.5 -34.5v96q31 16 82 27.5t109 11.5q90 0 146 -35.5t82 -100.5t26 -153
q0 -134 -55.5 -207.5t-187.5 -73.5z" />
    <glyph glyph-name="uni0E2E" unicode="&#xe2e;" horiz-adv-x="571" 
d="M279 -11q-112 0 -167.5 57t-55.5 178q0 20 1.5 45t4.5 47h219v-77h-118v-18q0 -85 28.5 -116.5t85.5 -31.5q41 0 71.5 16t47 58.5t16.5 119.5q0 106 -36.5 155t-123.5 49q-48 0 -93 -12.5t-82 -34.5v96q31 16 82 27.5t108 11.5q40 0 73.5 -8t59.5 -27q19 9 32 23.5
t13 36.5h100q0 -40 -22.5 -69t-61.5 -44q33 -33 47 -85t14 -118q0 -131 -55.5 -205t-187.5 -74z" />
    <glyph glyph-name="uni0E2F" unicode="&#xe2f;" horiz-adv-x="526" 
d="M328 0v261q-42 -42 -126 -42q-80 0 -132.5 44.5t-52.5 133.5q0 74 41.5 117.5t114.5 43.5q14 0 32.5 -2t38.5 -10l-13 -75q-12 4 -21 5t-16 1q-30 0 -51.5 -19.5t-21.5 -62.5q0 -44 26 -68t74 -24q55 0 81 28.5t26 92.5v124h107v-548h-107z" />
    <glyph glyph-name="uni0E30" unicode="&#xe30;" horiz-adv-x="344" 
d="M156 338q-64 0 -90.5 28t-26.5 62q0 33 17 62l86 -12q-2 -6 -4.5 -14.5t-2.5 -17.5q0 -14 7.5 -22t26.5 -8h134v-78h-147zM156 58q-64 0 -90.5 28t-26.5 62q0 33 17 62l86 -12q-2 -6 -4.5 -14.5t-2.5 -17.5q0 -14 7.5 -22t26.5 -8h134v-78h-147z" />
    <glyph glyph-name="uni0E31" unicode="&#xe31;" 
d="M-219 632q-65 0 -91 26.5t-26 59.5q0 16 4.5 34t12.5 31l85 -13q-2 -5 -4 -14t-2 -17q0 -13 8 -22t28 -9h242v-76h-257z" />
    <glyph glyph-name="uni0E32" unicode="&#xe32;" horiz-adv-x="415" 
d="M230 0v381q0 47 -22 69t-72 22q-35 0 -65 -9.5t-58 -25.5v92q21 10 58.5 20t89.5 10q79 0 127.5 -36t48.5 -125v-398h-107z" />
    <glyph glyph-name="uni0E33" unicode="&#xe33;" horiz-adv-x="415" 
d="M230 0v381q0 47 -22 69t-72 22q-35 0 -65 -9.5t-58 -25.5v92q21 10 58.5 20t89.5 10q79 0 127.5 -36t48.5 -125v-398h-107zM-166 608q-52 0 -82.5 24.5t-30.5 68.5t30.5 68.5t82.5 24.5t83.5 -24.5t31.5 -68.5t-31.5 -68.5t-83.5 -24.5zM-166 659q48 0 48 42t-48 42
q-47 0 -47 -42t47 -42z" />
    <glyph glyph-name="uni0E34" unicode="&#xe34;" 
d="M-521 632v46l81 35h354v-81h-435z" />
    <glyph glyph-name="uni0E35" unicode="&#xe35;" 
d="M-521 632v46l81 35h258v77h97v-113h-1v-45h-435z" />
    <glyph glyph-name="uni0E36" unicode="&#xe36;" 
d="M-521 632v46l81 35h178v6q0 37 25 60.5t69 23.5q46 0 72 -24.5t26 -62.5q0 -36 -24 -60t-70 -24h-357zM-166 678q20 0 31 11t11 28t-11.5 28t-31.5 11t-31 -11t-11 -27t10.5 -28t32.5 -12z" />
    <glyph glyph-name="uni0E37" unicode="&#xe37;" 
d="M-520 632v46l81 35h126v77h80v-77h68v77h79v-158h-434z" />
    <glyph glyph-name="uni0E38" unicode="&#xe38;" 
d="M-180 -261v101q0 25 -22 25q-5 0 -10.5 -1.5t-10.5 -2.5l-7 64q15 5 34 8t35 3q39 0 56.5 -17.5t17.5 -47.5v-132h-93z" />
    <glyph glyph-name="uni0E39" unicode="&#xe39;" 
d="M-223 -265q-69 0 -103.5 25t-34.5 70v17q0 17 -8.5 20.5t-23.5 -0.5l-7 62q14 5 30.5 6t25.5 1q38 0 54.5 -16t16.5 -45v-31q0 -19 11 -30.5t37 -11.5q27 0 37.5 11.5t10.5 30.5v89h91v-97q0 -101 -137 -101z" />
    <glyph glyph-name="uni0E3A" unicode="&#xe3a;" 
d="M-142 -200q-71 0 -71 69t71 69q34 0 52.5 -18t18.5 -51t-18.5 -51t-52.5 -18z" />
    <glyph glyph-name="uni0E3F" unicode="&#xe3f;" horiz-adv-x="583" 
d="M75 36v641h174v83h64v-84q101 -6 150.5 -43.5t49.5 -114.5q0 -56 -32.5 -94t-90.5 -48v-4q61 -10 102 -45t41 -108q0 -88 -60 -135.5t-160 -47.5v-94h-64v94h-174zM168 413h81v178h-81v-178zM413 505q0 74 -100 84v-175q56 5 78 28.5t22 62.5zM168 122h81v205h-81v-205z
M430 228q0 39 -26 66.5t-91 31.5v-204q65 4 91 33.5t26 72.5z" />
    <glyph glyph-name="uni0E40" unicode="&#xe40;" horiz-adv-x="309" 
d="M211 -10q-49 0 -83.5 24.5t-34.5 87.5v446h107v-433q0 -22 9 -31.5t31 -9.5q8 0 18 2t19 5l12 -75q-19 -9 -39 -12.5t-39 -3.5z" />
    <glyph glyph-name="uni0E41" unicode="&#xe41;" horiz-adv-x="590" 
d="M211 -10q-49 0 -83.5 24.5t-34.5 87.5v446h107v-433q0 -22 9 -31.5t31 -9.5q8 0 18 2t19 5l12 -75q-19 -9 -39 -12.5t-39 -3.5zM492 -10q-49 0 -83.5 24.5t-34.5 87.5v446h107v-433q0 -22 9 -31.5t31 -9.5q8 0 18 2t19 5l12 -75q-19 -9 -39 -12.5t-39 -3.5z" />
    <glyph glyph-name="uni0E42" unicode="&#xe42;" horiz-adv-x="320" 
d="M226 -10q-50 0 -84 24.5t-34 87.5v532q0 60 -26.5 86t-70.5 26v45l82 36h263v-81h-192l-1 -4q23 -15 37.5 -45.5t14.5 -79.5v-502q0 -22 9 -31.5t31 -9.5q8 0 18 2t19 5l12 -75q-20 -9 -39 -12.5t-39 -3.5z" />
    <glyph glyph-name="uni0E43" unicode="&#xe43;" horiz-adv-x="303" 
d="M204 -10q-50 0 -84 24.5t-34 87.5v385q0 27 4.5 44.5t15.5 34t31 41.5q23 28 35.5 47.5t12.5 42.5q0 56 -70 56q-30 0 -54.5 -8.5t-40.5 -18.5v86q14 8 45 16.5t74 8.5q70 0 112 -30.5t42 -92.5q0 -40 -15.5 -70t-34.5 -54q-17 -22 -28 -36.5t-16.5 -30t-5.5 -39.5v-369
q0 -41 39 -41q10 0 19.5 2t17.5 5l13 -75q-19 -9 -38.5 -12.5t-39.5 -3.5z" />
    <glyph glyph-name="uni0E44" unicode="&#xe44;" horiz-adv-x="317" 
d="M227 -10q-49 0 -83.5 24.5t-34.5 87.5v515q0 56 15.5 83t35.5 42l-1 4h-168l24 81h293v-81q-38 0 -65 -24t-27 -88v-519q0 -22 9 -31.5t31 -9.5q8 0 18 2t19 5l12 -75q-19 -9 -39 -12.5t-39 -3.5z" />
    <glyph glyph-name="uni0E45" unicode="&#xe45;" horiz-adv-x="415" 
d="M230 -204v585q0 47 -22 69t-72 22q-35 0 -65 -9.5t-58 -25.5v92q21 10 58.5 20t89.5 10q79 0 127.5 -36t48.5 -125v-602h-107z" />
    <glyph glyph-name="uni0E46" unicode="&#xe46;" horiz-adv-x="607" 
d="M424 -204v625q0 29 -11 42t-32 13q-22 0 -32.5 -13t-10.5 -42v-40h-74v40q0 29 -11.5 42t-31.5 13q-24 0 -35.5 -21t-11.5 -71q0 -56 14 -77t42 -21q9 0 18.5 2t19.5 5l19 -74q-16 -8 -34.5 -13.5t-41.5 -5.5q-70 0 -104 47t-34 135q0 96 36 136.5t96 40.5
q35 0 61.5 -12.5t38.5 -39.5h3q12 27 38 39.5t63 12.5q33 0 60.5 -11.5t44 -39.5t16.5 -78v-634h-106z" />
    <glyph glyph-name="uni0E47" unicode="&#xe47;" 
d="M-195 619q-59 0 -81 45l-50 -42q-58 0 -94 29t-36 84q0 58 35.5 86t81.5 28h239v-64h-222q-22 0 -37.5 -13t-15.5 -41q0 -20 10.5 -33t33.5 -13l53 48h19q4 -22 15.5 -36.5t32.5 -14.5q18 0 27 11t9 28v13h76v-15q0 -51 -26.5 -75.5t-69.5 -24.5z" />
    <glyph glyph-name="uni0E48" unicode="&#xe48;" 
d="M-191 632v215h102v-215h-102z" />
    <glyph glyph-name="uni0E49" unicode="&#xe49;" 
d="M-372 631v46q18 4 38 11.5t33.5 19.5t13.5 31q0 13 -7.5 21t-22.5 8q-10 0 -19.5 -3.5t-17.5 -6.5l-20 58q20 16 46 21.5t43 5.5q41 0 64.5 -22t23.5 -58q0 -30 -20 -54h160v-78h-315z" />
    <glyph glyph-name="uni0E4A" unicode="&#xe4a;" 
d="M-324 627q-51 0 -78.5 28t-27.5 77t27.5 76.5t76.5 32.5l57 -37l56 37q59 -5 83 -31t24 -60q0 -27 -14 -46h84v-72h-187v48q13 6 24 17t11 32q0 23 -11.5 33t-20.5 11l-46 -27h-5l-45 27q-9 -2 -19 -11t-10 -32q0 -22 11 -33.5t28 -11.5q4 0 10 0.5t12 3.5l11 -52
q-17 -10 -51 -10z" />
    <glyph glyph-name="uni0E4B" unicode="&#xe4b;" 
d="M-244 632v71h-75v71h75v73h89v-73h73v-71h-73v-71h-89z" />
    <glyph glyph-name="uni0E4C" unicode="&#xe4c;" 
d="M-257 605q-7 11 -11.5 30t-4.5 38q0 35 22.5 61t86.5 26h139v-78h-108q-43 0 -43 -32q0 -8 2.5 -16t6.5 -15z" />
    <glyph glyph-name="uni0E4D" unicode="&#xe4d;" 
d="M-166 608q-52 0 -82.5 24.5t-30.5 68.5t30.5 68.5t82.5 24.5t83.5 -24.5t31.5 -68.5t-31.5 -68.5t-83.5 -24.5zM-166 659q48 0 48 42t-48 42q-47 0 -47 -42t47 -42z" />
    <glyph glyph-name="uni0E4E" unicode="&#xe4e;" 
d="M-261 605q-6 9 -10.5 24t-4.5 29q0 35 23.5 53t55.5 18q17 0 29 -5q-2 9 -2 17q0 33 25 48.5t57 15.5q12 0 27.5 -2.5t28.5 -7.5v-57q-9 3 -18.5 4t-16.5 1q-43 0 -43 -34q0 -15 7 -26l-31 -22q-9 7 -19 9t-15 2q-18 0 -26 -9t-8 -21q0 -7 2 -13t5 -12z" />
    <glyph glyph-name="uni0E4F" unicode="&#xe4f;" horiz-adv-x="609" 
d="M305 -11q-125 0 -185 64t-60 175q0 116 60 177t185 61t185 -61t60 -177q0 -111 -60 -175t-185 -64zM305 64q76 0 114 42t38 122q0 85 -38 124t-114 39q-77 0 -115 -39t-38 -124q0 -80 38 -122t115 -42zM305 122q-49 0 -72.5 29t-23.5 77q0 51 23.5 78t72.5 27
q95 0 95 -105q0 -48 -23 -77t-72 -29z" />
    <glyph glyph-name="uni0E50" unicode="&#xe50;" horiz-adv-x="569" 
d="M284 -11q-111 0 -170 64t-59 175q0 116 59 177t170 61q112 0 171 -61t59 -177q0 -111 -59 -175t-171 -64zM284 74q60 0 92 39t32 115q0 80 -32 116.5t-92 36.5q-61 0 -92 -36.5t-31 -116.5q0 -154 123 -154z" />
    <glyph glyph-name="uni0E51" unicode="&#xe51;" horiz-adv-x="541" 
d="M270 -11q-23 0 -45 3.5t-36 8.5v78q9 -3 25.5 -5.5t34.5 -2.5q69 0 100.5 41.5t31.5 122.5t-30 114t-91 33q-53 0 -81.5 -23t-28.5 -70q0 -37 17 -57.5t45 -20.5q13 0 26 5l16 -75q-11 -8 -28.5 -12.5t-37.5 -4.5q-67 0 -102.5 44.5t-35.5 117.5q0 88 53.5 133.5
t156.5 45.5q121 0 174 -61t53 -168q0 -70 -22 -126t-70 -88.5t-125 -32.5z" />
    <glyph glyph-name="uni0E52" unicode="&#xe52;" horiz-adv-x="622" 
d="M317 -11q-137 0 -198.5 60.5t-61.5 167.5v367h102v-360q0 -42 14.5 -76t49.5 -54t95 -20q61 0 92.5 20t43 54.5t11.5 77.5v112q0 26 -7.5 37.5t-20.5 11.5q-18 0 -24.5 -14t-7.5 -37h-49q-2 25 -8.5 38t-24.5 13q-29 0 -29 -60q0 -26 7 -43.5t32 -17.5q5 0 13 1.5t15 5.5
l18 -64q-26 -16 -57 -16q-62 0 -89.5 39.5t-27.5 99.5q0 62 25 96t74 34q26 0 47 -11.5t32 -37.5h3q11 26 31.5 37.5t47.5 11.5q25 0 48 -10.5t37.5 -35.5t14.5 -69v-129q0 -72 -24 -123t-78.5 -78.5t-145.5 -27.5z" />
    <glyph glyph-name="uni0E53" unicode="&#xe53;" horiz-adv-x="561" 
d="M256 325q-4 32 -15.5 43.5t-25.5 11.5q-56 0 -56 -141q0 -83 18.5 -125.5t59.5 -42.5q7 0 16 1.5t18 5.5l12 -76q-31 -12 -74 -12q-56 0 -90 32t-49 88t-15 127q0 116 35.5 172t104.5 56q29 0 52 -11t36 -41h3q10 29 36 40.5t57 11.5q55 0 87.5 -31t32.5 -101v-333h-103
v326q0 34 -13 44t-28 10q-18 0 -30 -11t-15 -44h-54z" />
    <glyph glyph-name="uni0E54" unicode="&#xe54;" horiz-adv-x="538" 
d="M258 0q-102 0 -152.5 53.5t-50.5 168.5q0 64 18.5 118t61 87t115.5 33h39q56 0 72.5 18t16.5 66v40h98v-54q0 -75 -36 -113.5t-118 -38.5h-44q-66 0 -92.5 -42t-26.5 -115q0 -74 26 -106.5t83 -32.5h46q-23 29 -23 82q0 62 29.5 93.5t82.5 31.5q40 0 65 -14l-22 -64
q-5 2 -11.5 2.5t-11.5 0.5q-20 0 -30.5 -16t-10.5 -45q0 -73 65 -73h42v-80h-231z" />
    <glyph glyph-name="uni0E55" unicode="&#xe55;" horiz-adv-x="544" 
d="M261 0q-107 0 -156.5 55t-49.5 171q0 95 33.5 150t97.5 72q-13 10 -21 26t-8 37q0 37 25.5 60t70.5 23q47 0 71.5 -24t24.5 -59q0 -17 -5 -30t-13 -23q41 5 52 25t11 68v33h89v-54q0 -75 -36.5 -113.5t-119.5 -38.5h-44q-70 0 -97 -42t-27 -115q0 -74 26 -106.5t84 -32.5
h46q-21 32 -21 82q0 61 29 92.5t82 31.5q38 0 66 -13l-23 -65q-5 2 -11.5 3t-11.5 1q-19 0 -30 -17t-11 -45q0 -72 66 -72h41v-80h-230zM254 468q20 0 30.5 11t10.5 28q0 15 -10.5 26.5t-30.5 11.5t-30 -11.5t-10 -26.5q0 -17 10 -28t30 -11z" />
    <glyph glyph-name="uni0E56" unicode="&#xe56;" horiz-adv-x="522" 
d="M250 -11q-58 0 -104 18.5t-77 62.5l67 59q21 -25 45.5 -41t64.5 -16q63 0 89.5 39.5t26.5 117.5q0 83 -27.5 118t-80.5 35q-40 0 -66 -18t-28 -55h-73l-69 275h94l42 -164q20 24 50 34.5t68 10.5q101 0 148 -65t47 -173q0 -115 -53.5 -176.5t-163.5 -61.5z" />
    <glyph glyph-name="uni0E57" unicode="&#xe57;" horiz-adv-x="729" 
d="M248 325q-3 31 -12 43t-26 12q-30 0 -40.5 -34t-10.5 -101q0 -90 17.5 -132t59.5 -42q8 0 17 1.5t18 5.5l12 -76q-13 -5 -31.5 -8.5t-38.5 -3.5q-59 0 -93.5 31.5t-49.5 88t-15 132.5q0 124 35.5 173.5t99.5 49.5q29 0 50 -11t33 -41h4q12 31 37.5 41.5t54.5 10.5
q49 0 79 -25.5t30 -85.5v-272q40 0 62.5 23t22.5 85v394h101v-392q0 -56 -17.5 -93.5t-47 -59t-65.5 -30.5t-72 -9h-83v331q0 28 -10.5 38.5t-26.5 10.5q-21 0 -30 -12.5t-12 -42.5h-52z" />
    <glyph glyph-name="uni0E58" unicode="&#xe58;" horiz-adv-x="566" 
d="M383 -11q-43 0 -71 17.5t-38 54.5l-54 -68q-76 -1 -120.5 55t-44.5 171q0 66 18 120.5t61.5 87.5t120.5 33h45q54 0 70 17.5t16 65.5v41h100v-54q0 -75 -35.5 -113.5t-118.5 -38.5h-62q-62 0 -88 -41.5t-26 -112.5t19 -99.5t42 -33.5l53 60h45q0 -41 13.5 -58t39.5 -17
t41 17t15 52q0 34 -12.5 50.5t-25.5 26.5l61 63q38 -22 55 -57.5t17 -84.5q0 -72 -37 -113t-99 -41z" />
    <glyph glyph-name="uni0E59" unicode="&#xe59;" horiz-adv-x="517" 
d="M212 -10q-58 0 -92 31t-49.5 87t-15.5 130q0 123 38.5 175t113.5 52q32 0 52.5 -9.5t35.5 -30.5q9 18 26.5 29t42.5 11h7q20 0 29 11t9 38v70h95v-79q0 -53 -22 -82t-70 -29h-15q-29 0 -41 -17.5t2 -52.5l131 -324h-102l-132 342q-7 20 -15 30.5t-25 10.5q-15 0 -28 -12
t-20.5 -43t-7.5 -89q0 -82 18 -125t60 -43q7 0 16 1.5t18 5.5l12 -76q-13 -6 -33 -9t-38 -3z" />
    <glyph glyph-name="uni0E5A" unicode="&#xe5a;" horiz-adv-x="785" 
d="M328 -1v266q-21 -24 -53.5 -35t-70.5 -11q-82 0 -134.5 44.5t-52.5 133.5q0 74 41.5 117.5t115.5 43.5q14 0 32 -2t38 -10l-13 -75q-12 4 -21 5t-14 1q-32 0 -53.5 -20t-21.5 -62q0 -44 25.5 -68t76.5 -24q105 0 105 114v131h107v-231q18 -7 43 -7q51 0 79.5 30t28.5 88
v120h107v-549h-107v274q-19 -23 -47 -34.5t-59 -11.5q-24 0 -45 7v-235h-107z" />
    <glyph glyph-name="uni0E5B" unicode="&#xe5b;" horiz-adv-x="882" 
d="M240 70q-92 0 -141.5 50t-49.5 138q0 45 15.5 81.5t48.5 58.5t88 22q65 0 100.5 -30.5t35.5 -85.5q0 -26 -7.5 -48t-17.5 -38l-70 31q4 7 8 18.5t4 24.5q0 26 -15 37.5t-37 11.5q-31 0 -43 -23.5t-12 -54.5q0 -61 28.5 -86.5t74.5 -25.5q50 0 81 24.5t44.5 66.5t12.5 96
h68l49 -119l30 110h57l38 -101l28 90h50l6 -17q9 -25 16 -44t20.5 -30.5t41.5 -11.5q11 0 19 2t14 4v-70q-8 -5 -19 -8t-26 -3q-70 0 -103 77l-21 -84h-49l-40 109l-30 -119h-58l-39 104q-8 -35 -29.5 -71t-62 -61t-108.5 -25z" />
    <glyph glyph-name="uni200B" unicode="&#x200b;" 
 />
    <glyph glyph-name="uni200C" unicode="&#x200c;" 
d="M-21 -133v761h42v-761h-42z" />
    <glyph glyph-name="uni200D" unicode="&#x200d;" 
d="M-21 -133v668l-62 -62l-26 27l82 82l-82 81l26 27l83 -83l83 83l26 -27l-82 -81l82 -82l-26 -27l-62 62v-668h-42z" />
    <glyph glyph-name="uni2010" unicode="&#x2010;" horiz-adv-x="322" 
d="M37 223v90h248v-90h-248z" />
    <glyph glyph-name="uni25CC" unicode="&#x25cc;" horiz-adv-x="594" 
d="M297 488q-11 0 -18.5 8t-7.5 18t7.5 18t18.5 8t18.5 -8t7.5 -18t-7.5 -18t-18.5 -8zM213 470q-11 0 -18.5 8t-7.5 18t7.5 18t18.5 8t18.5 -8t7.5 -18t-7.5 -18t-18.5 -8zM381 470q-11 0 -18.5 8t-7.5 18t7.5 18t18.5 8t18.5 -8t7.5 -18t-7.5 -18t-18.5 -8zM455 423
q-11 0 -18.5 7.5t-7.5 18.5t7.5 18.5t18.5 7.5t18.5 -7.5t7.5 -18.5t-7.5 -18.5t-18.5 -7.5zM139 423q-11 0 -18.5 7.5t-7.5 18.5t7.5 18.5t18.5 7.5t18.5 -7.5t7.5 -18.5t-7.5 -18.5t-18.5 -7.5zM92 349q-10 0 -18 7.5t-8 18.5t8 18.5t18 7.5t18 -7.5t8 -18.5t-8 -18.5
t-18 -7.5zM502 349q-10 0 -18 7.5t-8 18.5t8 18.5t18 7.5t18 -7.5t8 -18.5t-8 -18.5t-18 -7.5zM74 265q-10 0 -18 7.5t-8 18.5t8 18.5t18 7.5t18 -7.5t8 -18.5t-8 -18.5t-18 -7.5zM520 265q-10 0 -18 7.5t-8 18.5t8 18.5t18 7.5t18 -7.5t8 -18.5t-8 -18.5t-18 -7.5zM92 181
q-10 0 -18 7.5t-8 18.5t8 18.5t18 7.5t18 -7.5t8 -18.5t-8 -18.5t-18 -7.5zM502 181q-10 0 -18 7.5t-8 18.5t8 18.5t18 7.5t18 -7.5t8 -18.5t-8 -18.5t-18 -7.5zM139 107q-11 0 -18.5 7.5t-7.5 18.5t7.5 18.5t18.5 7.5t18.5 -7.5t7.5 -18.5t-7.5 -18.5t-18.5 -7.5zM455 107
q-11 0 -18.5 7.5t-7.5 18.5t7.5 18.5t18.5 7.5t18.5 -7.5t7.5 -18.5t-7.5 -18.5t-18.5 -7.5zM213 60q-11 0 -18.5 8t-7.5 18t7.5 18t18.5 8t18.5 -8t7.5 -18t-7.5 -18t-18.5 -8zM381 60q-11 0 -18.5 8t-7.5 18t7.5 18t18.5 8t18.5 -8t7.5 -18t-7.5 -18t-18.5 -8zM297 42
q-11 0 -18.5 8t-7.5 18t7.5 18t18.5 8t18.5 -8t7.5 -18t-7.5 -18t-18.5 -8z" />
    <glyph glyph-name="saraUu-thai.small" horiz-adv-x="600" 
d="M94 0v714h411v-714h-411zM145 51h309v612h-309v-612z" />
    <glyph glyph-name="uni0E24.aalt" horiz-adv-x="609" 
d="M198 -10q-50 0 -85 24.5t-35 87.5v86q0 62 27 90t70 40l1 4l-113 41v31q0 43 27.5 80.5t79.5 61t126 23.5q66 0 119 -20.5t84.5 -64t31.5 -111.5v-537h-107v528q0 62 -37 89.5t-92 27.5q-58 0 -90 -23.5t-33 -59.5l106 -50l-8 -52q-38 -1 -62 -18t-24 -66v-88
q0 -42 42 -42q20 0 36 6l13 -72q-19 -9 -38 -12.5t-39 -3.5z" />
    <glyph glyph-name="uni0E26.aalt" horiz-adv-x="613" 
d="M96 -10q-43 0 -76 17l11 68q15 -5 31 -5q31 0 31 38v87q0 58 22 85.5t64 37.5l1 4l-113 41v31q0 43 27 80.5t79.5 61t126.5 23.5q66 0 119 -20.5t84.5 -64t31.5 -111.5v-537h-107v528q0 62 -37 89.5t-92 27.5q-58 0 -90 -23.5t-32 -59.5l106 -49l-9 -53q-35 0 -55.5 -23
t-20.5 -72v-93q0 -62 -29 -85t-73 -23z" />
    <glyph glyph-name="doChada-thai.short" horiz-adv-x="613" 
d="M99 -175v17q0 62 41.5 97t118.5 35q52 0 96 -15.5t73 -37.5v433q0 62 -37 89.5t-92 27.5q-58 0 -90 -23.5t-32 -59.5l106 -49l-9 -53q-35 0 -55.5 -23t-20.5 -72v-91q0 -62 -29 -85t-73 -23q-40 0 -76 17l11 68q15 -5 31 -5q31 0 31 38v85q0 58 22 85.5t64 37.5l1 4
l-113 41v31q0 43 27 80.5t79.5 61t126.5 23.5q66 0 119 -20.5t84.5 -64t31.5 -111.5v-538h-87q-16 18 -43 33.5t-59 24.5t-62 9q-41 0 -60 -17t-19 -41v-9h-106z" />
    <glyph glyph-name="toPatak-thai.short" horiz-adv-x="613" 
d="M72 -175v28q0 58 35 85t84 27q44 0 70.5 -17t41.5 -43l62 53l63 -46v442q0 62 -37 89.5t-92 27.5q-58 0 -90 -23.5t-32 -59.5l106 -49l-9 -53q-35 0 -55.5 -23t-20.5 -72v-91q0 -62 -29 -85t-73 -23q-40 0 -76 17l11 68q15 -5 31 -5q31 0 31 38v85q0 58 22 85.5t64 37.5
l1 4l-113 41v31q0 43 27 80.5t79.5 61t126.5 23.5q66 0 119 -20.5t84.5 -64t31.5 -111.5v-538h-93l-73 55l-58 -55h-26q-12 25 -29.5 43t-42.5 18q-26 0 -36.5 -17.5t-10.5 -35.5v-8h-94z" />
    <glyph glyph-name="yoYing-thai.less" horiz-adv-x="897" 
d="M609 -11q-109 0 -160 50.5t-51 156.5v161q0 45 -16 70t-42 35t-57 10q-49 0 -79 -21t-32 -62l106 -50l-8 -53q-38 -1 -62 -21.5t-24 -70.5v-80q0 -42 42 -42q20 0 36 6l13 -72q-19 -9 -38 -12.5t-39 -3.5q-50 0 -85 24.5t-35 87.5v87q0 61 27 89t70 40l1 4l-113 41v31
q0 46 26.5 83.5t76 59.5t118.5 22q59 0 109 -19t80.5 -61.5t30.5 -110.5v-176q0 -62 27.5 -88.5t76.5 -26.5t76.5 26.5t27.5 88.5v356h107v-352q0 -106 -51 -156.5t-159 -50.5z" />
    <glyph glyph-name="thoThan-thai.less" horiz-adv-x="554" 
d="M135 0v240h-70v76h170v-232h11q62 0 94 45t32 147q0 106 -38 151t-125 45q-49 0 -92 -13t-81 -38v96q31 17 80.5 29.5t108.5 12.5q47 0 83.5 -9t61.5 -29q21 8 36 23.5t15 39.5h100q0 -43 -26 -73.5t-71 -44.5q57 -59 57 -192q0 -130 -56.5 -202t-192.5 -72h-97z" />
    <glyph glyph-name="loChula-thai.short" horiz-adv-x="666" 
d="M109 0l-71 548h109l27 -236q6 -50 9 -94t5 -99h4q8 32 21.5 72t34.5 97l44 119h75l47 -119q11 -30 28 -76.5t33 -100.5h5q5 62 11 103.5t12 84.5l10 62q6 42 -6 65.5t-57 23.5h-56v73h89q38 0 48.5 16t13.5 45h105q1 -40 -20 -71t-73 -38v-4q38 -12 49 -42t5 -67
l-60 -362h-109l-69 184q-26 72 -40 137h-4q-7 -34 -17 -67.5t-24 -68.5l-69 -185h-110z" />
    <glyph glyph-name="macronbelowcomb.alt" 
d="M-120 -76v-80h-584v80h584z" />
    <glyph glyph-name="uni0E31.aalt" 
d="M-397 632q-65 0 -91 26.5t-26 59.5q0 16 4 34t12 31l85 -13q-2 -5 -3 -14t-1 -17q0 -13 8 -22t27 -9h144v-76h-159z" />
    <glyph glyph-name="glyph99" 
d="M-183 847v170h98v-170h-98z" />
    <glyph glyph-name="glyph100" 
d="M-365 632v215h102v-215h-102z" />
    <glyph glyph-name="glyph102" 
d="M-261 847v37q13 3 27.5 9t25.5 15.5t11 25.5q0 23 -23 23q-17 0 -32 -10l-18 49q18 13 41.5 17t38.5 4q30 0 51.5 -14.5t21.5 -46.5q0 -8 -2 -18t-7 -19h124v-72h-259z" />
    <glyph glyph-name="glyph103" 
d="M-506 631v46q17 4 36 11.5t32.5 19.5t13.5 30q0 30 -29 30q-11 0 -21 -3.5t-17 -6.5l-20 58q21 16 46.5 21.5t43.5 5.5q41 0 64.5 -22t23.5 -60q0 -14 -4.5 -27.5t-15.5 -24.5h113v-78h-266z" />
    <glyph glyph-name="glyph105" 
d="M-217 843q-43 0 -64 25.5t-21 60.5q0 36 24 62t73 26l49 -34l45 34q37 0 66.5 -16.5t29.5 -51.5q0 -24 -12 -40h70v-62h-161v44q14 2 24 12t10 25q0 30 -29 33l-41 -27h-5l-43 27q-30 -2 -30 -33q0 -14 8 -23t24 -9q12 0 19 3l8 -46q-15 -10 -44 -10z" />
    <glyph glyph-name="glyph106" 
d="M-470 627q-50 0 -76.5 28t-26.5 77q0 50 26.5 77t73.5 32l47 -37l47 37q54 -5 78 -30t24 -61q0 -26 -11 -46h65v-72h-166v48q16 6 26.5 17t10.5 32q0 23 -11 34t-24 13l-36 -27h-5l-36 27q-13 -2 -23.5 -14t-10.5 -32q0 -17 10 -31t31 -14q4 0 11 0.5t14 3.5l11 -52
q-17 -10 -49 -10z" />
    <glyph glyph-name="glyph108" 
d="M-179 847v51h-60v68h60v51h88v-51h60v-68h-60v-51h-88z" />
    <glyph glyph-name="glyph110" 
d="M-225 820q-9 14 -13.5 32.5t-4.5 36.5q0 23 10 43t36.5 32.5t73.5 12.5h120v-74h-100q-46 0 -46 -34q0 -17 8 -33z" />
    <glyph glyph-name="glyph111" 
d="M-463 605q-7 11 -12 30t-5 38q0 35 23.5 61t87.5 26h131v-78h-102q-43 0 -43 -32q0 -15 8 -31z" />
    <glyph glyph-name="uni0E47.aalt" 
d="M-329 619q-54 0 -78 45l-36 -42q-58 0 -91 29t-33 84q0 58 33.5 86t77.5 28h216v-64h-200q-22 0 -36 -12.5t-14 -40.5q0 -20 10 -33.5t33 -13.5l39 48h24q2 -51 38 -51q16 0 26 11t10 28v13h71v-15q0 -51 -24.5 -75.5t-65.5 -24.5z" />
    <glyph glyph-name="uni0E34.aalt" 
d="M-593 632v46l75 35h278v-81h-353z" />
    <glyph glyph-name="uni0E35.aalt" 
d="M-593 632v44l75 34h184v78h94v-156h-353z" />
    <glyph glyph-name="uni0E36.aalt" 
d="M-593 632v44l75 34h114q-1 4 -1 10q0 38 25.5 62t69.5 24q45 0 71 -25t26 -63t-23.5 -62t-69.5 -24h-287zM-309 678q20 0 30.5 11.5t10.5 28.5q0 19 -11 30t-31 11q-21 0 -32 -11t-11 -29q0 -17 10.5 -29t33.5 -12z" />
    <glyph glyph-name="uni0E37.aalt" 
d="M-593 632v44l75 34h72v78h74v-78h58v78h75v-78h1v-78h-355z" />
    <glyph glyph-name="nikhahit_maiEk-thai" 
d="M-166 608q-52 0 -82.5 24.5t-30.5 68.5t30.5 68.5t82.5 24.5t83.5 -24.5t31.5 -68.5t-31.5 -68.5t-83.5 -24.5zM-166 659q48 0 48 42t-48 42q-47 0 -47 -42t47 -42zM-212 847v170h98v-170h-98z" />
    <glyph glyph-name="nikhahit_maiTho-thai" 
d="M-166 608q-52 0 -82.5 24.5t-30.5 68.5t30.5 68.5t82.5 24.5t83.5 -24.5t31.5 -68.5t-31.5 -68.5t-83.5 -24.5zM-166 659q48 0 48 42t-48 42q-47 0 -47 -42t47 -42zM-290 847v37q13 3 27.5 9t25.5 15.5t11 25.5q0 23 -23 23q-17 0 -32 -10l-18 49q18 13 41.5 17t38.5 4
q30 0 51.5 -14.5t21.5 -46.5q0 -8 -2 -18t-7 -19h124v-72h-259z" />
    <glyph glyph-name="nikhahit_maiTri-thai" 
d="M-166 608q-52 0 -82.5 24.5t-30.5 68.5t30.5 68.5t82.5 24.5t83.5 -24.5t31.5 -68.5t-31.5 -68.5t-83.5 -24.5zM-166 659q48 0 48 42t-48 42q-47 0 -47 -42t47 -42zM-246 843q-43 0 -64 25.5t-21 60.5q0 36 24 62t73 26l49 -34l45 34q37 0 66.5 -16.5t29.5 -51.5
q0 -24 -12 -40h70v-62h-161v44q14 2 24 12t10 25q0 30 -29 33l-41 -27h-5l-43 27q-30 -2 -30 -33q0 -14 8 -23t24 -9q12 0 19 3l8 -46q-15 -10 -44 -10z" />
    <glyph glyph-name="nikhahit_maiChattawa-thai" 
d="M-166 608q-52 0 -82.5 24.5t-30.5 68.5t30.5 68.5t82.5 24.5t83.5 -24.5t31.5 -68.5t-31.5 -68.5t-83.5 -24.5zM-166 659q48 0 48 42t-48 42q-47 0 -47 -42t47 -42zM-208 847v51h-60v68h60v51h88v-51h60v-68h-60v-51h-88z" />
    <glyph glyph-name="uni0E3A.aalt" 
d="M-134 -368q-71 0 -71 69t71 69q34 0 52.5 -18t18.5 -51t-18.5 -51t-52.5 -18z" />
    <glyph glyph-name="uni0E38.aalt" 
d="M-171 -429v101q0 25 -22 25q-5 0 -10.5 -1.5t-10.5 -2.5l-7 64q15 5 34 8t35 3q39 0 56.5 -17.5t17.5 -47.5v-132h-93z" />
    <glyph glyph-name="uni0E39.aalt" 
d="M-215 -437q-69 0 -103.5 25t-34.5 70v17q0 17 -8.5 20.5t-23.5 -0.5l-7 62q14 5 30.5 6t25.5 1q38 0 54.5 -16t16.5 -45v-31q0 -19 11 -30.5t37 -11.5q27 0 37.5 11.5t10.5 30.5v89h91v-97q0 -101 -137 -101z" />
    <glyph glyph-name="maiChattawa-thai.narrow" 
d="M-405 632v71h-74v71h74v73h88v-73h75v-71h-75v-71h-88z" />
    <glyph glyph-name="nikhahit-thai.narrow" 
d="M-353 608q-52 0 -82.5 24.5t-30.5 68.5t30.5 68.5t82.5 24.5t83.5 -24.5t31.5 -68.5t-31.5 -68.5t-83.5 -24.5zM-353 659q48 0 48 42t-48 42q-47 0 -47 -42t47 -42z" />
    <glyph glyph-name="nikhahit_maiEk-thai.narrow" 
d="M-326 608q-52 0 -82.5 24.5t-30.5 68.5t30.5 68.5t82.5 24.5t83.5 -24.5t31.5 -68.5t-31.5 -68.5t-83.5 -24.5zM-326 659q48 0 48 42t-48 42q-47 0 -47 -42t47 -42zM-372 847v170h98v-170h-98z" />
    <glyph glyph-name="nikhahit_maiTho-thai.narrow" 
d="M-325 608q-52 0 -82.5 24.5t-30.5 68.5t30.5 68.5t82.5 24.5t83.5 -24.5t31.5 -68.5t-31.5 -68.5t-83.5 -24.5zM-325 659q48 0 48 42t-48 42q-47 0 -47 -42t47 -42zM-449 847v37q13 3 27.5 9t25.5 15.5t11 25.5q0 23 -23 23q-17 0 -32 -10l-18 49q18 13 41.5 17t38.5 4
q30 0 51.5 -14.5t21.5 -46.5q0 -8 -2 -18t-7 -19h124v-72h-259z" />
    <glyph glyph-name="nikhahit_maiTri-thai.narrow" 
d="M-326 608q-52 0 -82.5 24.5t-30.5 68.5t30.5 68.5t82.5 24.5t83.5 -24.5t31.5 -68.5t-31.5 -68.5t-83.5 -24.5zM-326 659q48 0 48 42t-48 42q-47 0 -47 -42t47 -42zM-406 843q-43 0 -64 25.5t-21 60.5q0 36 24 62t73 26l49 -34l45 34q37 0 66.5 -16.5t29.5 -51.5
q0 -24 -12 -40h70v-62h-161v44q14 2 24 12t10 25q0 30 -29 33l-41 -27h-5l-43 27q-30 -2 -30 -33q0 -14 8 -23t24 -9q12 0 19 3l8 -46q-15 -10 -44 -10z" />
    <glyph glyph-name="nikhahit_maiChattawa-thai.narrow" 
d="M-325 608q-52 0 -82.5 24.5t-30.5 68.5t30.5 68.5t82.5 24.5t83.5 -24.5t31.5 -68.5t-31.5 -68.5t-83.5 -24.5zM-325 659q48 0 48 42t-48 42q-47 0 -47 -42t47 -42zM-367 847v51h-60v68h60v51h88v-51h60v-68h-60v-51h-88z" />
    </font>
</defs>
</svg>
