<?xml version="1.0" standalone="no"?>
<!DOCTYPE svg PUBLIC "-//W3C//DTD SVG 1.1//EN" "http://www.w3.org/Graphics/SVG/1.1/DTD/svg11.dtd" >
<svg xmlns="http://www.w3.org/2000/svg" xmlns:xlink="http://www.w3.org/1999/xlink" version="1.1">
<metadata>
Created by FontForge 20170731 at Wed Sep 20 01:01:00 2017
 By Aleksey,,,
Copyright 2016 Google Inc. All Rights Reserved.
</metadata>
<defs>
<font id="NotoSansThaiUI-Regular" horiz-adv-x="0" >
  <font-face 
    font-family="Noto Sans Thai UI"
    font-weight="400"
    font-stretch="normal"
    units-per-em="1000"
    panose-1="2 11 5 2 4 5 4 2 2 4"
    ascent="800"
    descent="-200"
    bbox="-691 -265 862 981"
    underline-thickness="50"
    underline-position="-175"
    unicode-range="U+000D-25CC"
  />
<missing-glyph horiz-adv-x="364" 
d="M33 0v666h265v-666h-265zM66 33h199v600h-199v-600z" />
    <glyph glyph-name="ru_lakkhangyao-thai" unicode="&#xe24;&#xe45;" horiz-adv-x="942" 
d="M432 -191v521q0 68 -41 95.5t-100 27.5q-62 0 -98 -23.5t-36 -59.5l114 -50l-8 -46q-37 0 -63.5 -21t-26.5 -71v-81q0 -39 41 -39q22 0 38 6l13 -63q-19 -8 -37 -11t-34 -3q-28 0 -53.5 9t-41 31t-15.5 61v88q0 58 26.5 85t69.5 37l1 3l-115 39v31q0 39 27 74t78 56.5
t123 21.5q73 0 119 -23t69 -64h3q19 41 66.5 64t114.5 23q94 0 144.5 -47t50.5 -133v-538h-89v528q0 65 -36 90.5t-88 25.5t-89.5 -27t-37.5 -93v-524h-89z" />
    <glyph glyph-name="lu_lakkhangyao-thai" unicode="&#xe26;&#xe45;" horiz-adv-x="943" 
d="M433 -191v521q0 68 -41.5 95.5t-99.5 27.5q-62 0 -98 -23.5t-36 -59.5l114 -50l-8 -46q-38 0 -60.5 -22t-22.5 -72v-90q0 -58 -27 -78.5t-66 -20.5q-37 0 -69 14l10 60q7 -1 16 -3t17 -2q30 0 30 37v86q0 57 23 83t66 36l1 3l-115 39v31q0 39 27 74t78.5 56.5t122.5 21.5
q72 0 118 -23t70 -64h3q20 41 67 64t114 23q94 0 144.5 -47t50.5 -133v-538h-89v528q0 65 -36.5 90.5t-88.5 25.5t-89 -27t-37 -93v-524h-89z" />
    <glyph glyph-name=".notdef" horiz-adv-x="364" 
d="M33 0v666h265v-666h-265zM66 33h199v600h-199v-600z" />
    <glyph glyph-name=".null" 
 />
    <glyph glyph-name="nonmarkingreturn" horiz-adv-x="333" 
 />
    <glyph glyph-name="NULL" 
 />
    <glyph glyph-name="NULL" 
 />
    <glyph glyph-name="CR" unicode="&#xd;" horiz-adv-x="260" 
 />
    <glyph glyph-name="space" unicode=" " horiz-adv-x="260" 
 />
    <glyph glyph-name="hyphen" unicode="-" horiz-adv-x="322" 
d="M40 229v78h242v-78h-242z" />
    <glyph glyph-name="uni00A0" unicode="&#xa0;" horiz-adv-x="260" 
 />
    <glyph glyph-name="uni02BC" unicode="&#x2bc;" horiz-adv-x="175" 
d="M149 714l7 -11q-13 -53 -35.5 -117t-45.5 -117h-64q9 37 18 81t17 86.5t12 77.5h91z" />
    <glyph glyph-name="uni02D7" unicode="&#x2d7;" horiz-adv-x="218" 
d="M206 250h-194v52h194v-52z" />
    <glyph glyph-name="tildecomb" unicode="&#x303;" 
d="M-120 735q-6 -59 -33 -93.5t-71 -34.5q-26 0 -51 14t-48 28.5t-44 14.5q-22 0 -33.5 -14.5t-17.5 -43.5h-50q6 59 33 93.5t72 34.5q27 0 52.5 -14.5t48 -28.5t42.5 -14q21 0 32.5 14.5t18.5 43.5h49z" />
    <glyph glyph-name="uni0331" unicode="&#x331;" 
d="M-120 -76v-71h-282v71h282z" />
    <glyph glyph-name="uni0E01" unicode="&#xe01;" horiz-adv-x="600" 
d="M76 0v177q0 60 28 87.5t71 37.5l1 3l-110 39v31q0 39 27 74t77 56.5t121 21.5q61 0 113 -19t83.5 -58.5t31.5 -102.5v-347h-89v338q0 62 -41 88.5t-99 26.5q-62 0 -97.5 -23.5t-35.5 -59.5l108 -50l-8 -46q-37 -1 -64.5 -23.5t-27.5 -72.5v-178h-89z" />
    <glyph glyph-name="uni0E02" unicode="&#xe02;" horiz-adv-x="547" 
d="M274 -10q-94 0 -145.5 43.5t-51.5 129.5v56q0 46 14 73.5t30 47.5q17 21 29.5 37.5t12.5 38.5q0 20 -10.5 28t-26.5 8q-24 0 -52 -13l-20 63q18 11 44.5 16t46.5 5q55 0 78.5 -27t23.5 -70q0 -34 -13 -57t-29 -44q-17 -23 -28 -45t-11 -56v-55q0 -43 15 -65.5t40 -31.5
t53 -9q103 0 103 90v364h89v-369q0 -75 -49 -116.5t-143 -41.5z" />
    <glyph glyph-name="uni0E03" unicode="&#xe03;" horiz-adv-x="549" 
d="M272 -10q-94 0 -144 44t-50 130v57q0 55 21 86t48 58q16 16 27.5 29.5t12.5 27.5l-3 2q-11 -8 -25.5 -12.5t-32.5 -4.5q-36 0 -59 23t-23 66v21h78q0 -53 32 -53q10 0 22.5 3.5t22.5 11.5l19 38h49v-44q0 -28 -2 -48.5t-11 -39.5t-30 -44q-16 -19 -28.5 -33.5t-20.5 -34
t-8 -52.5v-51q0 -44 15 -67t39 -31.5t51 -8.5q52 0 80 22t28 68v364h88v-369q0 -75 -50.5 -116.5t-145.5 -41.5z" />
    <glyph glyph-name="uni0E04" unicode="&#xe04;" horiz-adv-x="614" 
d="M81 0v328q0 96 53.5 147.5t172.5 51.5t172.5 -51.5t53.5 -147.5v-328h-89v328q0 125 -138 125q-136 0 -136 -125v-102l3 -1q22 37 54 48.5t90 11.5h33v-72h-33q-61 0 -92.5 -16t-43 -42.5t-11.5 -57.5v-97h-89z" />
    <glyph glyph-name="uni0E05" unicode="&#xe05;" horiz-adv-x="621" 
d="M81 0v396q0 66 35.5 98.5t96.5 32.5q35 0 60.5 -11.5t34.5 -38.5h4q10 27 35 38.5t60 11.5q62 0 97.5 -32.5t35.5 -98.5v-396h-89v391q0 35 -16.5 48.5t-41.5 13.5q-50 0 -56 -56h-56q-6 56 -58 56q-23 0 -39 -13.5t-16 -48.5v-165l3 -1q23 37 56 48.5t91 11.5h33v-72
h-33q-62 0 -93.5 -16t-43 -42.5t-11.5 -57.5v-97h-89z" />
    <glyph glyph-name="uni0E06" unicode="&#xe06;" horiz-adv-x="598" 
d="M333 -9q-68 0 -114 24t-63 67h-4l-5 -82h-73v217q0 55 20 87t50 61q22 21 32 32.5t11 24.5l-3 2q-11 -8 -25.5 -12.5t-32.5 -4.5q-36 0 -59 23t-23 66v21h78q0 -53 32 -53q10 0 22.5 3.5t22.5 11.5l19 38h50v-44q0 -27 -3 -46.5t-13 -39t-32 -46.5q-16 -20 -29 -35.5
t-21 -35t-8 -51.5v-9q0 -67 39.5 -105.5t109.5 -38.5q117 0 117 114v337h89v-345q0 -94 -49.5 -137.5t-134.5 -43.5z" />
    <glyph glyph-name="uni0E07" unicode="&#xe07;" horiz-adv-x="537" 
d="M171 0l-171 517h90l148 -441h12q24 0 47 11t39 27q30 31 44 77.5t14 92.5q0 77 -37.5 120.5t-103.5 43.5q-29 0 -46 -6l-22 71q21 5 39.5 7t33.5 2q98 0 157 -54q35 -32 51.5 -80t16.5 -107q0 -73 -24 -130.5t-60 -91.5q-29 -27 -71 -43t-107 -16h-50z" />
    <glyph glyph-name="uni0E08" unicode="&#xe08;" horiz-adv-x="532" 
d="M147 0v229h-76v68h161v-226h13q67 0 101 43.5t34 145.5q0 104 -38 148.5t-130 44.5q-47 0 -90.5 -11.5t-83.5 -36.5v82q30 17 79 28.5t106 11.5q91 0 145.5 -31.5t78.5 -91t24 -144.5q0 -124 -54 -192t-186 -68h-84z" />
    <glyph glyph-name="uni0E09" unicode="&#xe09;" horiz-adv-x="604" 
d="M265 -9q-85 0 -134.5 41.5t-49.5 131.5v131h88v-122q0 -52 29 -79.5t87 -27.5q71 0 110 41t39 109v84q0 60 -19.5 93t-56 46.5t-86.5 13.5q-48 0 -93.5 -11.5t-88.5 -36.5v82q28 17 80 28.5t113 11.5q127 0 183.5 -57t56.5 -165v-305h-73l-5 76h-4q-17 -38 -63 -61.5
t-113 -23.5z" />
    <glyph glyph-name="uni0E0A" unicode="&#xe0a;" horiz-adv-x="550" 
d="M275 -10q-95 0 -146.5 43.5t-51.5 129.5v56q0 46 14 73.5t30 47.5q17 21 29.5 37.5t12.5 38.5q0 20 -10.5 28t-26.5 8q-24 0 -52 -13l-20 63q18 11 44.5 16t46.5 5q55 0 78.5 -27t23.5 -70q0 -34 -13 -57t-29 -44q-17 -23 -28 -45t-11 -56v-54q0 -43 15 -66t40 -32t54 -9
q102 0 102 90v128q0 35 -17 53t-55 18h-4v56h5q41 0 58 18t20.5 43t3.5 48h89q0 -51 -13 -86t-59 -51v-3q27 -7 40 -22.5t17 -35t4 -37.5v-134q0 -75 -48 -116.5t-143 -41.5z" />
    <glyph glyph-name="uni0E0B" unicode="&#xe0b;" horiz-adv-x="556" 
d="M276 -10q-94 0 -144 44t-50 130v57q0 55 19 86t46 58q16 16 27.5 29.5t12.5 27.5l-3 2q-11 -8 -25.5 -12.5t-32.5 -4.5q-36 0 -59 23t-23 66v21h78q0 -53 32 -53q10 0 22.5 3.5t22.5 11.5l19 38h49v-44q0 -28 -2 -48.5t-11 -39.5t-30 -44q-16 -19 -27.5 -33.5t-18.5 -32
t-7 -46.5v-59q0 -44 15 -67t39 -31.5t51 -8.5q52 0 80 22t28 68v128q0 71 -73 71h-4v56h5q40 0 57.5 18t21 43t3.5 48h89q0 -51 -14 -85t-58 -50v-4q37 -10 49.5 -37t12.5 -68v-125q0 -75 -51 -116.5t-146 -41.5z" />
    <glyph glyph-name="uni0E0C" unicode="&#xe0c;" horiz-adv-x="906" 
d="M194 -9q-28 0 -53.5 9t-41 31t-15.5 61v88q0 58 26.5 85t69.5 37l1 3l-115 39v31q0 41 26.5 75.5t75 55.5t115.5 21q56 0 106 -18t81 -57.5t31 -103.5v-131q0 -68 37.5 -109.5t96.5 -41.5q47 0 74 25t27 80v346h89v-353q0 -93 -47.5 -133t-123.5 -40q-54 0 -98 24t-62 67
h-4l-4 -82h-74v338q0 44 -18 69t-48 35.5t-64 10.5q-55 0 -89.5 -21.5t-35.5 -61.5l114 -50l-8 -46q-37 0 -63.5 -21t-26.5 -71v-81q0 -39 42 -39q21 0 37 6l13 -63q-19 -8 -37 -11t-34 -3z" />
    <glyph glyph-name="uni0E0D" unicode="&#xe0d;" horiz-adv-x="909" 
d="M598 -166q-41 0 -82.5 8t-78.5 24v85q31 -19 75 -29.5t84 -10.5t71 11.5t49 40.5t18 82v25h-4q-20 -29 -59 -49t-95 -20q-48 0 -86 17t-60 54.5t-22 99.5v168q0 44 -18 68.5t-47.5 34.5t-62.5 10q-53 0 -87.5 -21t-35.5 -62l114 -50l-8 -46q-37 0 -63.5 -21t-26.5 -71
v-81q0 -39 41 -39q22 0 38 6l13 -63q-19 -8 -37 -11t-34 -3q-28 0 -53.5 9t-41 31t-15.5 61v88q0 58 26.5 85t69.5 37l1 3l-115 39v31q0 42 26.5 76.5t75 55t113.5 20.5q55 0 104.5 -17.5t80.5 -57t31 -104.5v-167q0 -55 27.5 -79.5t72.5 -24.5q61 0 98 41t37 109v290h89
v-468q0 -108 -57.5 -161.5t-165.5 -53.5z" />
    <glyph glyph-name="uni0E0E" unicode="&#xe0e;" horiz-adv-x="603" 
d="M103 -191v16q0 57 40.5 90t117.5 33q54 0 98.5 -15.5t73.5 -36.5v442q0 62 -41.5 88.5t-99.5 26.5q-62 0 -98 -23.5t-36 -59.5l114 -50l-8 -46q-38 0 -60.5 -22t-22.5 -72v-90q0 -58 -27 -78t-66 -20q-37 0 -69 14l10 61q7 -2 16 -4t17 -2q30 0 30 37v85q0 57 23 83
t66 36l1 3l-115 39v31q0 39 26.5 74t77.5 56.5t122 21.5q61 0 113.5 -19t84 -58.5t31.5 -102.5v-538h-70q-16 17 -44 32t-62 24.5t-68 9.5q-44 0 -64 -17t-20 -39v-10h-91z" />
    <glyph glyph-name="uni0E0F" unicode="&#xe0f;" horiz-adv-x="603" 
d="M76 -191v25q0 51 35 78.5t82 27.5q46 0 71 -16.5t38 -40.5l64 51l67 -46v450q0 62 -41.5 88.5t-99.5 26.5q-62 0 -98 -23.5t-36 -59.5l114 -50l-8 -46q-38 0 -60.5 -22t-22.5 -72v-90q0 -58 -27 -78t-66 -20q-37 0 -69 14l10 61q7 -2 16 -4t17 -2q30 0 30 37v85
q0 57 23 83t66 36l1 3l-115 39v31q0 39 26.5 74t77.5 56.5t122 21.5q61 0 113.5 -19t84 -58.5t31.5 -102.5v-538h-80l-74 53l-61 -53h-23q-13 25 -30.5 43t-44.5 18t-38 -17.5t-11 -34.5v-9h-84z" />
    <glyph glyph-name="uni0E10" unicode="&#xe10;" horiz-adv-x="547" 
d="M143 0v229h-76v68h161v-226h13q67 0 101 43.5t34 145.5q0 104 -38 148.5t-130 44.5q-47 0 -90.5 -11.5t-83.5 -36.5v82q30 17 79 28.5t106 11.5q95 0 143 -37q23 7 42 21.5t19 39.5h87q0 -42 -28.5 -69.5t-69.5 -37.5q30 -30 42.5 -77t12.5 -108q0 -124 -54 -191.5
t-186 -67.5h-84zM41 -191v24q0 51 33 78t76 27q40 0 64 -16t37 -39l59 51l70 -49v68h80v-144h-84l-66 53l-57 -53h-19q-11 25 -28 43t-42 18q-26 0 -35 -17.5t-9 -34.5v-9h-79z" />
    <glyph glyph-name="uni0E11" unicode="&#xe11;" horiz-adv-x="626" 
d="M98 0v202q0 57 8 91t33 62q21 23 30.5 34t13 17.5t4.5 15.5l-3 2q-11 -8 -25.5 -12.5t-32.5 -4.5q-36 0 -59 23t-23 66v21h78q0 -29 7.5 -41t25.5 -12q9 0 19 3t17 12l19 38h46v-69h4q31 46 67.5 62.5t74.5 16.5q78 0 110.5 -38.5t32.5 -98.5v-390h-89v370q0 42 -18 61.5
t-51 19.5q-35 0 -67.5 -21.5t-73.5 -67.5q-23 -26 -36 -47.5t-18 -48t-5 -68.5v-198h-89z" />
    <glyph glyph-name="uni0E12" unicode="&#xe12;" horiz-adv-x="903" 
d="M270 -9q-82 0 -126.5 34.5t-62.5 96.5t-18 143q0 97 18.5 154t52.5 82.5t82 25.5q33 0 56.5 -12t33.5 -38h4q10 27 34.5 38.5t57.5 11.5q57 0 91.5 -33t34.5 -100v-177q0 -68 37 -109.5t98 -41.5q44 0 71.5 25t27.5 80v346h89v-353q0 -62 -21.5 -100t-59 -55.5
t-84.5 -17.5q-64 0 -106 25.5t-59 65.5h-4l-5 -82h-73v391q0 35 -14.5 48.5t-36.5 13.5q-48 0 -54 -56h-55q-4 33 -18.5 44.5t-33.5 11.5q-37 0 -56 -40t-19 -145q0 -66 10.5 -111.5t38.5 -69t81 -23.5q19 0 32 1.5t25 4.5l9 -67q-16 -7 -36 -9.5t-42 -2.5z" />
    <glyph glyph-name="uni0E13" unicode="&#xe13;" horiz-adv-x="909" 
d="M194 -9q-28 0 -53.5 9t-41 31t-15.5 61v88q0 58 26.5 85t69.5 37l1 3l-115 39v31q0 42 26.5 76.5t75 55t113.5 20.5q55 0 104.5 -17.5t80.5 -57t31 -104.5v-177q0 -55 27.5 -80t73.5 -25q60 0 97 41.5t37 109.5v300h89v-517h-73l-5 82h-5q-17 -43 -60.5 -67t-97.5 -24
q-76 0 -124 39.5t-48 131.5v178q0 44 -18 68.5t-47.5 34.5t-62.5 10q-53 0 -87.5 -21t-35.5 -62l114 -50l-8 -46q-37 0 -63.5 -21t-26.5 -71v-81q0 -39 42 -39q21 0 37 6l13 -63q-19 -8 -37 -11t-34 -3z" />
    <glyph glyph-name="uni0E14" unicode="&#xe14;" horiz-adv-x="616" 
d="M268 -9q-80 0 -125.5 35.5t-64 95.5t-18.5 133q0 107 31 166t86 82.5t129 23.5q120 0 174.5 -49.5t54.5 -133.5v-344h-88v336q0 57 -31 87t-107 30q-47 0 -83 -15.5t-56.5 -58.5t-20.5 -125q0 -54 11.5 -97t40.5 -68t81 -25q15 0 28 2t25 6l9 -69q-16 -7 -36.5 -9.5
t-39.5 -2.5z" />
    <glyph glyph-name="uni0E15" unicode="&#xe15;" horiz-adv-x="636" 
d="M275 -9q-84 0 -130 36t-64 98.5t-18 143.5q0 138 41.5 198t119.5 60q35 0 59.5 -12t34.5 -38h4q10 27 36 38.5t61 11.5q65 0 100.5 -33t35.5 -100v-394h-89v391q0 36 -17 49t-43 13q-29 0 -42.5 -13.5t-16.5 -42.5h-56q-4 33 -21 44.5t-38 11.5q-40 0 -60 -43.5
t-20 -141.5q0 -64 10.5 -110t39.5 -70t84 -24q20 0 33 1.5t25 4.5l9 -67q-15 -7 -36 -9.5t-42 -2.5z" />
    <glyph glyph-name="uni0E16" unicode="&#xe16;" horiz-adv-x="602" 
d="M194 -9q-28 0 -53.5 9t-41 31t-15.5 61v88q0 58 26.5 85t69.5 37l1 3l-115 39v31q0 39 27 74t77.5 56.5t121.5 21.5q62 0 114 -19t83.5 -58.5t31.5 -102.5v-347h-89v338q0 62 -41 88.5t-100 26.5q-62 0 -98 -23.5t-36 -59.5l114 -50l-8 -46q-37 -1 -63.5 -17.5
t-26.5 -65.5v-90q0 -39 42 -39q21 0 37 6l13 -63q-19 -8 -37 -11t-34 -3z" />
    <glyph glyph-name="uni0E17" unicode="&#xe17;" horiz-adv-x="609" 
d="M84 0v517h62l16 -82h4q17 42 62 67t109 25q89 0 140 -44.5t51 -138.5v-344h-89v338q0 113 -119 113q-70 0 -108.5 -44.5t-38.5 -111.5v-295h-89z" />
    <glyph glyph-name="uni0E18" unicode="&#xe18;" horiz-adv-x="544" 
d="M273 -10q-63 0 -110.5 10.5t-81.5 23.5v215h83v-161q14 -7 44.5 -12t65.5 -5q34 0 64.5 7t50 27t19.5 58q0 35 -19 54t-56 30.5t-91 26.5q-62 17 -101.5 33.5t-58.5 39.5t-19 62q0 62 50 95t160 33q69 0 116.5 -10.5t70.5 -20.5v-78q-26 13 -79 25t-117 12q-52 0 -82 -11
t-30 -38q0 -29 37.5 -42.5t103.5 -31.5q53 -14 99.5 -32.5t75 -52t28.5 -93.5q0 -74 -51.5 -119t-171.5 -45z" />
    <glyph glyph-name="uni0E19" unicode="&#xe19;" horiz-adv-x="613" 
d="M270 -9q-88 0 -138.5 43.5t-50.5 138.5v344h89v-337q0 -114 119 -114q70 0 108.5 42t38.5 114v295h89v-517h-74l-4 77h-5q-18 -38 -62.5 -62t-109.5 -24z" />
    <glyph glyph-name="uni0E1A" unicode="&#xe1a;" horiz-adv-x="604" 
d="M301 -10q-118 0 -169 51.5t-51 147.5v328h89v-330q0 -123 131 -123q68 0 100.5 31t32.5 92v330h89v-328q0 -96 -51.5 -147.5t-170.5 -51.5z" />
    <glyph glyph-name="uni0E1B" unicode="&#xe1b;" horiz-adv-x="605" 
d="M301 -10q-118 0 -169 51.5t-51 147.5v328h89v-330q0 -123 131 -123q68 0 100.5 31t32.5 92v516h89v-514q0 -96 -51.5 -147.5t-170.5 -51.5z" />
    <glyph glyph-name="uni0E1C" unicode="&#xe1c;" horiz-adv-x="648" 
d="M86 0v424q0 40 17 62.5t44 31.5t58 9q11 0 28.5 -3.5t30.5 -8.5l-11 -66q-10 3 -20 4t-16 1q-25 0 -34.5 -11t-9.5 -31v-142q0 -28 -0.5 -60t-3.5 -76h4q19 41 36.5 69l32.5 52l53 83h56l53 -83q24 -37 39.5 -64t29.5 -57h4q-3 44 -3.5 76t-0.5 60v247h87v-517h-79
l-155 244h-4l-157 -244h-79z" />
    <glyph glyph-name="uni0E1D" unicode="&#xe1d;" horiz-adv-x="652" 
d="M86 0v424q0 40 17 62.5t44 31.5t58 9q11 0 28.5 -3t30.5 -9l-11 -66q-10 3 -20 4.5t-16 1.5q-25 0 -34.5 -11.5t-9.5 -31.5v-141q0 -29 -0.5 -60.5t-3.5 -76.5h4q19 41 36.5 69l32.5 52l53 83h56l53 -83q24 -37 39.5 -64t29.5 -57h4q-3 45 -3.5 76.5t-0.5 60.5v432h88
v-703h-80l-155 244h-4l-157 -244h-79z" />
    <glyph glyph-name="uni0E1E" unicode="&#xe1e;" horiz-adv-x="695" 
d="M140 0l-99 517h91l39 -221q5 -27 10 -70t12 -102h3q13 60 25.5 103t21.5 72l67 218h73l68 -218q9 -29 21 -72t26 -103h4q6 59 11 102t10 70l40 221h91l-99 -517h-87l-92 275q-8 24 -14 50.5t-12 66.5h-4q-7 -40 -14.5 -66.5t-14.5 -50.5l-90 -275h-87z" />
    <glyph glyph-name="uni0E1F" unicode="&#xe1f;" horiz-adv-x="682" 
d="M136 0l-95 517h91l35 -221q1 -9 4.5 -37t8 -64.5t8.5 -70.5h5q7 40 19 83.5t27 91.5l68 218h72l68 -218q15 -48 26.5 -91.5t19.5 -83.5h4q6 57 10.5 101t8.5 71l57 407h88l-110 -703h-88l-91 275q-7 21 -13 49t-13 68h-4q-8 -40 -14 -66.5t-14 -50.5l-91 -275h-87z" />
    <glyph glyph-name="uni0E20" unicode="&#xe20;" horiz-adv-x="603" 
d="M88 -9q-37 0 -69 14l10 60q7 -1 16 -3t17 -2q30 0 30 37v86q0 57 23 83t66 36l1 3l-115 39v31q0 39 26.5 74t77.5 56.5t122 21.5q61 0 113.5 -19t84 -58.5t31.5 -102.5v-347h-89v338q0 62 -41.5 88.5t-99.5 26.5q-62 0 -98 -23.5t-36 -59.5l114 -50l-8 -46
q-38 0 -60.5 -22t-22.5 -72v-90q0 -58 -27 -78.5t-66 -20.5z" />
    <glyph glyph-name="uni0E21" unicode="&#xe21;" horiz-adv-x="614" 
d="M345 -9q-65 0 -111 24t-63 67h-4l-5 -82h-73v517h89v-295q0 -72 39 -114t110 -42q117 0 117 114v337h89v-345q0 -94 -49.5 -137.5t-138.5 -43.5z" />
    <glyph glyph-name="uni0E22" unicode="&#xe22;" horiz-adv-x="594" 
d="M292 -9q-122 0 -171.5 43.5t-49.5 117.5q0 43 13.5 68.5t34 38.5t42.5 16v4q-21 5 -42.5 18.5t-36 37t-14.5 59.5q0 33 16 62.5t52 48.5t95 19q24 0 50 -3.5t40 -10.5l-16 -68q-11 3 -28.5 6.5t-36.5 3.5q-42 0 -62 -18t-20 -47q0 -33 17.5 -49.5t45 -22.5t57.5 -6h19
v-64h-19q-60 0 -88.5 -19.5t-28.5 -65.5q0 -26 11.5 -48.5t40 -35.5t79.5 -13q76 0 104 29t28 80v345h89v-340q0 -98 -53.5 -142t-167.5 -44z" />
    <glyph glyph-name="uni0E23" unicode="&#xe23;" horiz-adv-x="488" 
d="M235 -10q-59 0 -109.5 11t-85.5 27l26 72q32 -13 76.5 -24.5t94.5 -11.5q53 0 88 18t35 53q0 31 -28 52t-90 39q-64 19 -107 39.5t-65.5 50t-22.5 74.5q0 60 51 98.5t163 38.5q48 0 90.5 -8.5t66.5 -21.5v-75q-26 11 -69.5 21.5t-90.5 10.5q-68 0 -95 -18t-27 -43
q0 -20 12.5 -34.5t43 -27.5t82.5 -30q48 -15 88 -34.5t63.5 -49t23.5 -75.5q0 -40 -20.5 -74.5t-67.5 -56t-126 -21.5z" />
    <glyph glyph-name="uni0E24" unicode="&#xe24;" horiz-adv-x="602" 
d="M194 -9q-28 0 -53.5 9t-41 31t-15.5 61v88q0 58 26.5 85t69.5 37l1 3l-115 39v31q0 39 27 74t77.5 56.5t121.5 21.5q62 0 114 -19t83.5 -58.5t31.5 -102.5v-538h-89v529q0 62 -41 88.5t-100 26.5q-62 0 -98 -23.5t-36 -59.5l114 -50l-8 -46q-37 -1 -63.5 -17.5
t-26.5 -65.5v-90q0 -39 42 -39q21 0 37 6l13 -63q-19 -8 -37 -11t-34 -3z" />
    <glyph glyph-name="uni0E25" unicode="&#xe25;" horiz-adv-x="571" 
d="M230 -9q-88 0 -134.5 38t-46.5 110q0 77 60.5 120t196.5 51l96 6v28q0 59 -29.5 84.5t-98.5 25.5q-50 0 -96 -13t-86 -35v82q28 14 78 26.5t112 12.5q105 0 156.5 -43t51.5 -136v-348h-88v243l-84 -6q-102 -7 -140.5 -30t-38.5 -66q0 -41 28.5 -60.5t79.5 -19.5
q31 0 58 8l14 -65q-19 -8 -41.5 -10.5t-47.5 -2.5z" />
    <glyph glyph-name="uni0E26" unicode="&#xe26;" horiz-adv-x="603" 
d="M88 -9q-37 0 -69 14l10 60q7 -1 16 -3t17 -2q30 0 30 37v86q0 57 23 83t66 36l1 3l-115 39v31q0 39 26.5 74t77.5 56.5t122 21.5q61 0 113.5 -19t84 -58.5t31.5 -102.5v-538h-89v529q0 62 -41.5 88.5t-99.5 26.5q-62 0 -98 -23.5t-36 -59.5l114 -50l-8 -46
q-38 0 -60.5 -22t-22.5 -72v-90q0 -58 -27 -78.5t-66 -20.5z" />
    <glyph glyph-name="uni0E27" unicode="&#xe27;" horiz-adv-x="492" 
d="M191 -10q-39 0 -75.5 8t-77.5 29l28 67q22 -12 50 -21t65 -9q74 0 115.5 50t41.5 147q0 94 -42.5 143t-130.5 49q-32 0 -65 -6.5t-58 -20.5v75q28 14 63 20t70 6q90 0 146 -33t82 -93t26 -140q0 -126 -59.5 -198.5t-178.5 -72.5z" />
    <glyph glyph-name="uni0E28" unicode="&#xe28;" horiz-adv-x="628" 
d="M81 0v328q0 96 53.5 147.5t172.5 51.5q43 0 76.5 -7.5t57.5 -24.5q19 7 33 21t14 35h87q0 -37 -22.5 -63t-57.5 -38q20 -20 29 -51.5t9 -70.5v-328h-89v328q0 125 -137 125t-137 -125v-102l3 -1q23 37 54.5 48.5t89.5 11.5h33v-72h-33q-61 0 -92.5 -16t-43 -42.5
t-11.5 -57.5v-97h-89z" />
    <glyph glyph-name="uni0E29" unicode="&#xe29;" horiz-adv-x="640" 
d="M309 -10q-124 0 -176 53t-52 150v324h89v-325q0 -65 33 -96.5t106 -31.5t106 31.5t33 96.5v21h-78q-64 0 -87.5 25.5t-23.5 57.5q0 14 3.5 30t11.5 26l72 -13q-6 -12 -6 -27q0 -13 7.5 -23t26.5 -10h74v238h89v-238h64v-66h-64v-20q0 -97 -52 -150t-176 -53z" />
    <glyph glyph-name="uni0E2A" unicode="&#xe2a;" horiz-adv-x="572" 
d="M230 -9q-88 0 -134.5 38t-46.5 110q0 77 60.5 120t196.5 51l96 6v28q0 59 -29.5 84.5t-98.5 25.5q-50 0 -96 -13t-86 -35v82q28 14 78 26.5t112 12.5q40 0 71.5 -6.5t52.5 -22.5q17 7 29 20.5t12 32.5h87q0 -35 -21 -60.5t-54 -38.5q17 -18 24 -44.5t7 -59.5v-348h-88
v243l-84 -6q-102 -7 -140.5 -30t-38.5 -66q0 -41 28.5 -60.5t79.5 -19.5q31 0 58 8l14 -65q-19 -8 -41.5 -10.5t-47.5 -2.5z" />
    <glyph glyph-name="uni0E2B" unicode="&#xe2b;" horiz-adv-x="587" 
d="M89 0v517h89v-221h3l228 221h104v-3l-159 -153q80 -7 122 -54t42 -122v-185h-89v181q0 52 -33 82.5t-108 33.5l-110 -106v-191h-89z" />
    <glyph glyph-name="uni0E2C" unicode="&#xe2c;" horiz-adv-x="668" 
d="M126 0l-85 517h90l32 -241q4 -28 9.5 -69t6.5 -96h4q16 55 26.5 87t23.5 65l65 165h67l66 -165q13 -31 24 -64t26 -88h5q0 36 4.5 79.5t12.5 84.5l22 110q13 64 -14.5 92t-95.5 28h-46v64h81q70 0 95.5 26.5t25.5 73.5v5h90v-5q0 -54 -24.5 -92t-84.5 -49v-3
q30 -13 44 -35t17 -47t-1 -48l-74 -395h-87l-76 203q-15 40 -24 69.5t-18 72.5h-4q-9 -47 -17.5 -78t-21.5 -65l-78 -202h-86z" />
    <glyph glyph-name="uni0E2D" unicode="&#xe2d;" horiz-adv-x="574" 
d="M275 -10q-108 0 -161.5 53.5t-53.5 167.5q0 19 1.5 41.5t3.5 44.5h210v-68h-126v-19q0 -87 31.5 -117.5t92.5 -30.5q45 0 78 15.5t51 57t18 119.5q0 103 -37.5 151t-129.5 48q-48 0 -91.5 -11.5t-83.5 -33.5v82q30 15 79 26t107 11q88 0 142.5 -33.5t79.5 -94.5t25 -144
q0 -126 -53 -195.5t-183 -69.5z" />
    <glyph glyph-name="uni0E2E" unicode="&#xe2e;" horiz-adv-x="560" 
d="M275 -10q-108 0 -161.5 53.5t-53.5 167.5q0 19 1.5 41.5t3.5 44.5h210v-68h-126v-19q0 -87 31.5 -117.5t92.5 -30.5q45 0 78 15.5t51 57t18 119.5q0 103 -38 151t-129 48q-95 0 -175 -45v82q30 15 79 26t107 11q40 0 73.5 -8t59.5 -25q20 7 35.5 21t15.5 36h87
q0 -38 -24 -64t-60 -39q32 -30 46 -80.5t14 -114.5q0 -83 -23 -141.5t-74.5 -90t-138.5 -31.5z" />
    <glyph glyph-name="uni0E2F" unicode="&#xe2f;" horiz-adv-x="519" 
d="M332 0v250q-42 -41 -129 -41q-81 0 -133 42t-52 125q0 70 41 110.5t112 40.5q14 0 31.5 -2.5t37.5 -9.5l-13 -65q-13 4 -23 5t-17 1q-33 0 -56.5 -20t-23.5 -63q0 -45 28 -69t80 -24q61 0 89 29t28 93v115h89v-517h-89z" />
    <glyph glyph-name="uni0E30" unicode="&#xe30;" horiz-adv-x="338" 
d="M153 344q-62 0 -88 26.5t-26 59.5q0 34 16 58l75 -12q-2 -5 -4.5 -14t-2.5 -18q0 -13 7 -21.5t26 -8.5h143v-70h-146zM153 64q-62 0 -88 26.5t-26 59.5q0 34 16 58l75 -12q-2 -5 -4.5 -14t-2.5 -18q0 -13 7 -21.5t26 -8.5h143v-70h-146z" />
    <glyph glyph-name="uni0E31" unicode="&#xe31;" 
d="M-216 605q-63 0 -89 25.5t-26 57.5q0 15 4.5 32.5t11.5 28.5l75 -13q-6 -12 -6 -31q0 -13 8 -22.5t27 -9.5h253v-68h-258z" />
    <glyph glyph-name="uni0E32" unicode="&#xe32;" horiz-adv-x="406" 
d="M236 0v365q0 45 -22.5 66.5t-75.5 21.5q-36 0 -67.5 -9t-60.5 -24v78q20 10 57 19.5t88 9.5q78 0 124 -33.5t46 -115.5v-378h-89z" />
    <glyph glyph-name="uni0E33" unicode="&#xe33;" horiz-adv-x="406" 
d="M236 0v365q0 45 -22.5 66.5t-75.5 21.5q-36 0 -67.5 -9t-60.5 -24v78q20 10 57 19.5t88 9.5q78 0 124 -33.5t46 -115.5v-378h-89zM-160 581q-50 0 -79 23.5t-29 66.5t29 66.5t79 23.5t80 -23.5t30 -66.5t-30 -66.5t-80 -23.5zM-160 628q24 0 36.5 12t12.5 31t-12.5 31
t-36.5 12q-23 0 -35.5 -12t-12.5 -31t12.5 -31t35.5 -12z" />
    <glyph glyph-name="uni0E34" unicode="&#xe34;" 
d="M-514 605v39l73 32h352v-71h-425z" />
    <glyph glyph-name="uni0E35" unicode="&#xe35;" 
d="M-514 605v39l73 32h268v81h84v-152h-425z" />
    <glyph glyph-name="uni0E36" unicode="&#xe36;" 
d="M-514 605v39l73 32h179q-1 5 -1 11q0 37 24.5 60t67.5 23q44 0 69.5 -23.5t25.5 -60.5q0 -34 -23 -57.5t-67 -23.5h-348zM-169 648q20 0 31 11t11 28t-11.5 28t-31.5 11t-31 -11t-11 -27t10.5 -28t32.5 -12z" />
    <glyph glyph-name="uni0E37" unicode="&#xe37;" 
d="M-514 605v39l73 32h133v81h74v-81h72v81h73v-152h-425z" />
    <glyph glyph-name="uni0E38" unicode="&#xe38;" 
d="M-169 -261v106q0 25 -22 25q-5 0 -10.5 -1t-10.5 -3l-7 60q15 5 32.5 7.5t28.5 2.5q34 0 51 -17t17 -45v-135h-79z" />
    <glyph glyph-name="uni0E39" unicode="&#xe39;" 
d="M-219 -265q-65 0 -98 25.5t-33 72.5v17q0 16 -8.5 20t-23.5 0l-6 60q14 4 27.5 5t20.5 1q36 0 51.5 -16t15.5 -45v-34q0 -19 12 -32t41 -13q30 0 41.5 13t11.5 32v92h78v-97q0 -101 -130 -101z" />
    <glyph glyph-name="uni0E3A" unicode="&#xe3a;" 
d="M-138 -196q-68 0 -68 65t68 65q32 0 50 -17t18 -48t-18 -48t-50 -17z" />
    <glyph glyph-name="uni0E3F" unicode="&#xe3f;" horiz-adv-x="584" 
d="M79 36v641h175v83h61v-84q99 -7 149 -44t50 -114q0 -57 -32 -94.5t-92 -47.5v-4q41 -7 74 -24t52.5 -48.5t19.5 -81.5q0 -87 -60.5 -134.5t-160.5 -47.5v-94h-61v94h-175zM165 409h89v191h-89v-191zM422 508q0 79 -107 90v-188q61 5 84 30t23 68zM165 112h89v220h-89
v-220zM441 226q0 43 -28 71.5t-98 33.5v-218q70 4 98 35.5t28 77.5z" />
    <glyph glyph-name="uni0E40" unicode="&#xe40;" horiz-adv-x="295" 
d="M205 -9q-27 0 -52 9t-41 31t-16 61v425h89v-414q0 -41 42 -41q9 0 19 2t19 5l12 -64q-19 -8 -37 -11t-35 -3z" />
    <glyph glyph-name="uni0E41" unicode="&#xe41;" horiz-adv-x="568" 
d="M205 -9q-27 0 -52 9t-41 31t-16 61v425h89v-414q0 -41 42 -41q9 0 19 2t19 5l12 -64q-19 -8 -37 -11t-35 -3zM478 -9q-27 0 -52 9t-41 31t-16 61v425h89v-414q0 -41 42 -41q9 0 19 2t19 5l12 -64q-19 -8 -37 -11t-35 -3z" />
    <glyph glyph-name="uni0E42" unicode="&#xe42;" horiz-adv-x="308" 
d="M219 -9q-27 0 -52 9t-41 31t-16 61v512q0 60 -28.5 86t-72.5 26v38l74 32h267v-70h-203l-1 -4q22 -15 37.5 -45.5t15.5 -79.5v-484q0 -41 42 -41q9 0 19 2t19 5l12 -64q-19 -8 -37 -11t-35 -3z" />
    <glyph glyph-name="uni0E43" unicode="&#xe43;" horiz-adv-x="289" 
d="M196 -9q-28 0 -53 9t-41 31t-16 61v367q0 25 5 42t16.5 33t32.5 40q25 28 37 47t12 41q0 54 -71 54q-32 0 -57 -8t-42 -17v75q13 7 42 14.5t68 7.5q66 0 106.5 -28t40.5 -86q0 -38 -15.5 -66t-34.5 -51q-18 -21 -29 -35t-16.5 -28t-5.5 -37v-354q0 -41 41 -41q11 0 21 2
t18 5l12 -64q-19 -8 -37 -11t-34 -3z" />
    <glyph glyph-name="uni0E44" unicode="&#xe44;" horiz-adv-x="304" 
d="M219 -9q-27 0 -52 9t-41 31t-16 61v495q0 56 15.5 83t36.5 42l-1 4h-174l23 70h282v-70q-38 0 -65.5 -24t-27.5 -88v-501q0 -41 42 -41q9 0 19 2t19 5l12 -64q-19 -8 -37 -11t-35 -3z" />
    <glyph glyph-name="uni0E45" unicode="&#xe45;" horiz-adv-x="406" 
d="M236 -200v565q0 45 -22.5 66.5t-75.5 21.5q-36 0 -67.5 -9t-60.5 -24v78q20 10 57 19.5t88 9.5q78 0 124 -33.5t46 -115.5v-578h-89z" />
    <glyph glyph-name="uni0E46" unicode="&#xe46;" horiz-adv-x="595" 
d="M427 -191v592q0 54 -46 54t-46 -54v-40h-75v40q0 54 -46 54q-26 0 -38 -20.5t-12 -70.5q0 -57 15 -78t45 -21q18 0 40 8l17 -65q-17 -8 -33.5 -12t-36.5 -4q-69 0 -101 44t-32 126q0 89 34 127t91 38q33 0 59 -11.5t37 -37.5h3q12 26 37 37.5t60 11.5q48 0 81.5 -25
t33.5 -92v-601h-87z" />
    <glyph glyph-name="uni0E47" unicode="&#xe47;" 
d="M-193 590q-57 0 -79 46l-50 -43q-56 0 -90.5 28.5t-34.5 82.5q0 57 34.5 84.5t79.5 27.5h233v-60h-220q-23 0 -39.5 -14t-16.5 -42q0 -21 11 -34.5t37 -13.5l56 50h19q4 -22 16.5 -37.5t34.5 -15.5q19 0 28.5 11t9.5 29v13h65v-14q0 -50 -25.5 -74t-68.5 -24z" />
    <glyph glyph-name="uni0E48" unicode="&#xe48;" 
d="M-178 605v211h88v-211h-88z" />
    <glyph glyph-name="uni0E49" unicode="&#xe49;" 
d="M-368 605v44q20 4 41 11.5t35 19.5t14 31q0 12 -7.5 20.5t-23.5 8.5q-11 0 -21 -4t-18 -7l-20 55q20 16 44.5 21t39.5 5q40 0 62.5 -22t22.5 -56q0 -17 -6 -31.5t-15 -25.5h162v-70h-310z" />
    <glyph glyph-name="uni0E4A" unicode="&#xe4a;" 
d="M-318 600q-50 0 -76.5 27.5t-26.5 74.5q0 48 26.5 74.5t73.5 31.5l56 -36l55 36q56 -5 79 -30.5t23 -60.5q0 -27 -15 -47h86v-65h-180v42q13 6 25 18.5t12 34.5q0 24 -12 34t-22 12l-48 -29h-6l-48 29q-10 -2 -20.5 -11t-10.5 -34q0 -24 11.5 -36.5t30.5 -12.5q5 0 11 1
t12 4l13 -47q-17 -10 -49 -10z" />
    <glyph glyph-name="uni0E4B" unicode="&#xe4b;" 
d="M-240 605v72h-76v64h76v75h76v-75h76v-64h-76v-72h-76z" />
    <glyph glyph-name="uni0E4C" unicode="&#xe4c;" 
d="M-253 576q-7 10 -11.5 28t-4.5 35q0 21 9 39.5t31.5 30.5t64.5 12h137v-69h-114q-20 0 -32 -7.5t-12 -25.5q0 -7 2.5 -15t6.5 -16z" />
    <glyph glyph-name="uni0E4D" unicode="&#xe4d;" 
d="M-160 581q-50 0 -79 23.5t-29 66.5t29 66.5t79 23.5t80 -23.5t30 -66.5t-30 -66.5t-80 -23.5zM-160 628q24 0 36.5 12t12.5 31t-12.5 31t-36.5 12q-23 0 -35.5 -12t-12.5 -31t12.5 -31t35.5 -12z" />
    <glyph glyph-name="uni0E4E" unicode="&#xe4e;" 
d="M-255 576q-6 9 -10.5 24t-4.5 29q0 34 22 51t53 17q16 0 28 -5q-2 9 -2 18q0 31 24 46t55 15q11 0 26 -2.5t28 -7.5v-52q-10 3 -19.5 4t-15.5 1q-23 0 -34 -9.5t-11 -25.5q0 -13 7 -27l-28 -20q-10 8 -20 10t-15 2q-19 0 -27.5 -9.5t-8.5 -21.5q0 -7 2.5 -13.5t5.5 -13.5
z" />
    <glyph glyph-name="uni0E4F" unicode="&#xe4f;" horiz-adv-x="595" 
d="M298 -10q-119 0 -178.5 63.5t-59.5 174.5q0 116 59.5 176.5t178.5 60.5t178.5 -60.5t59.5 -176.5q0 -111 -59.5 -174.5t-178.5 -63.5zM298 60q75 0 113 43t38 125q0 87 -38 127t-113 40q-76 0 -114 -40t-38 -127q0 -82 38 -125t114 -43zM298 121q-49 0 -72 29t-23 78
q0 106 95 106q94 0 94 -106q0 -49 -23 -78t-71 -29z" />
    <glyph glyph-name="uni0E50" unicode="&#xe50;" horiz-adv-x="570" 
d="M285 -10q-110 0 -168.5 63.5t-58.5 174.5q0 116 58.5 176.5t168.5 60.5t168.5 -60.5t58.5 -176.5q0 -111 -58.5 -174.5t-168.5 -63.5zM285 63q66 0 101.5 42.5t35.5 122.5q0 86 -35.5 125t-101.5 39q-67 0 -102 -39t-35 -125q0 -80 35 -122.5t102 -42.5z" />
    <glyph glyph-name="uni0E51" unicode="&#xe51;" horiz-adv-x="545" 
d="M277 -10q-23 0 -44.5 3t-34.5 8v71q10 -4 28 -7t38 -3q70 0 102 44.5t32 127.5q0 86 -33 122t-101 36q-60 0 -92.5 -27t-32.5 -79q0 -42 19.5 -65t50.5 -23q5 0 13 1t15 3l14 -67q-22 -14 -58 -14q-69 0 -104.5 46.5t-35.5 117.5q0 89 55.5 134.5t155.5 45.5
q118 0 171 -60.5t53 -167.5q0 -70 -21.5 -126t-68 -88.5t-121.5 -32.5z" />
    <glyph glyph-name="uni0E52" unicode="&#xe52;" horiz-adv-x="613" 
d="M313 -10q-133 0 -193.5 60.5t-60.5 167.5v366h86v-361q0 -43 14.5 -79.5t51 -58.5t102.5 -22t99 22t44.5 58.5t11.5 80.5v114q0 30 -8 42.5t-23 12.5q-20 0 -26.5 -15.5t-8.5 -40.5h-54q-2 27 -9.5 41.5t-27.5 14.5q-32 0 -32 -65q0 -27 8 -46t35 -19q14 0 30 8l16 -61
q-14 -8 -26.5 -11.5t-28.5 -3.5q-43 0 -68.5 19t-36.5 50.5t-11 68.5q0 61 25.5 94.5t72.5 33.5q26 0 47.5 -11.5t32.5 -39.5h3q12 28 32.5 39.5t46.5 11.5q24 0 46.5 -10t37 -35t14.5 -70v-128q0 -72 -23.5 -123t-76.5 -78t-142 -27z" />
    <glyph glyph-name="uni0E53" unicode="&#xe53;" horiz-adv-x="559" 
d="M209 -10q-55 0 -88 32.5t-48 89t-15 126.5q0 115 36 171t103 56q29 0 52 -11.5t33 -39.5h4q10 28 34 39.5t55 11.5q54 0 87 -29.5t33 -100.5v-335h-87v335q0 37 -15 47.5t-32 10.5q-20 0 -33.5 -12t-17.5 -47h-55q-4 34 -16.5 46.5t-29.5 12.5q-63 0 -63 -153
q0 -88 20 -133.5t64 -45.5q8 0 18 1.5t20 5.5l10 -67q-13 -5 -31.5 -8t-37.5 -3z" />
    <glyph glyph-name="uni0E54" unicode="&#xe54;" horiz-adv-x="539" 
d="M259 0q-101 0 -151 53t-50 169q0 64 18.5 118t61.5 87t117 33h40q41 0 61.5 8t27.5 28t7 54v34h84v-40q0 -78 -36 -117.5t-122 -39.5h-49q-68 0 -95 -44t-27 -121q0 -80 28 -115t91 -35h55q-25 30 -25 84q0 64 29 97.5t80 33.5q38 0 62 -13l-24 -59q-5 2 -11.5 3t-11.5 1
q-22 0 -33 -18.5t-11 -49.5q0 -82 69 -82h45v-69h-230z" />
    <glyph glyph-name="uni0E55" unicode="&#xe55;" horiz-adv-x="540" 
d="M260 0q-104 0 -153 54.5t-49 171.5q0 99 35.5 152.5t100.5 71.5q-12 9 -19.5 24.5t-7.5 36.5q0 36 24.5 59t67.5 23q45 0 68.5 -23.5t23.5 -58.5q0 -17 -5 -30t-12 -21q41 4 52.5 24.5t11.5 67.5v32h79v-40q0 -78 -36.5 -117.5t-122.5 -39.5h-46q-70 0 -98 -44t-28 -121
q0 -80 28 -115t91 -35h54q-23 33 -23 84q0 64 29 97t80 33q17 0 33.5 -3.5t28.5 -8.5l-24 -60q-5 2 -12 3t-12 1q-21 0 -32.5 -18t-11.5 -50q0 -81 70 -81h45v-69h-230zM259 468q21 0 32 12t11 28t-11 27.5t-32 11.5q-20 0 -30.5 -11.5t-10.5 -27.5t10.5 -28t30.5 -12z" />
    <glyph glyph-name="uni0E56" unicode="&#xe56;" horiz-adv-x="520" 
d="M247 -10q-55 0 -100 17t-77 58l55 54q23 -25 48.5 -41t70.5 -16q70 0 99.5 42t29.5 125q0 89 -30 126.5t-90 37.5q-44 0 -73 -19.5t-32 -58.5h-59l-74 269h82l47 -165q21 24 52 35t69 11q102 0 149.5 -65.5t47.5 -173.5q0 -116 -54 -176t-161 -60z" />
    <glyph glyph-name="uni0E57" unicode="&#xe57;" horiz-adv-x="720" 
d="M214 -10q-58 0 -92 32t-49 89t-15 132q0 83 16 131.5t46 69.5t71 21q30 0 49.5 -11.5t30.5 -39.5h5q11 30 35 40.5t54 10.5q49 0 79 -25t30 -87v-280q44 0 67.5 25.5t23.5 86.5v399h86v-402q0 -70 -28.5 -109.5t-73.5 -56t-93 -16.5h-67v340q0 30 -11.5 41.5t-30.5 11.5
q-24 0 -33.5 -13.5t-13.5 -45.5h-54q-4 32 -14 45.5t-29 13.5q-34 0 -45.5 -37t-11.5 -109q0 -96 19 -141t64 -45q8 0 18.5 1.5t20.5 5.5l10 -67q-13 -5 -29 -8t-35 -3z" />
    <glyph glyph-name="uni0E58" unicode="&#xe58;" horiz-adv-x="565" 
d="M383 -10q-42 0 -70 17.5t-38 55.5l-55 -69q-73 0 -117.5 55t-44.5 170q0 66 18 120.5t61 87.5t118 33h50q41 0 61 8t27 27.5t7 54.5v34h84v-40q0 -78 -35.5 -117.5t-122.5 -39.5h-61q-66 0 -93 -44t-27 -120q0 -77 20 -108t45 -36l59 65h48q0 -44 14 -62.5t42 -18.5
q60 0 60 76q0 37 -14 55t-28 29l52 61q39 -20 57 -56t18 -86q0 -70 -37 -111t-98 -41z" />
    <glyph glyph-name="uni0E59" unicode="&#xe59;" horiz-adv-x="504" 
d="M212 -10q-56 0 -90 31.5t-49 87.5t-15 129q0 123 38.5 175t111.5 52q31 0 49.5 -9.5t33.5 -30.5q22 40 74 40h7q21 0 31 11.5t10 40.5v67h82v-71q0 -53 -22.5 -82t-72.5 -29h-15q-29 0 -42.5 -17.5t1.5 -52.5l141 -332h-91l-142 349q-8 21 -17 32.5t-28 11.5
q-17 0 -31 -13t-22 -46t-8 -94q0 -87 19.5 -133t64.5 -46q8 0 18 1.5t20 5.5l10 -67q-13 -5 -31.5 -8t-34.5 -3z" />
    <glyph glyph-name="uni0E5A" unicode="&#xe5a;" horiz-adv-x="767" 
d="M332 -1v255q-21 -23 -54.5 -34t-72.5 -11q-83 0 -135 42t-52 125q0 70 41 110.5t113 40.5q14 0 31 -2.5t37 -9.5l-13 -65q-13 4 -23 5t-15 1q-35 0 -58.5 -20t-23.5 -63q0 -93 111 -93q59 0 86.5 28.5t27.5 85.5v123h89v-221q8 -3 18.5 -5t25.5 -2q55 0 85 29.5t30 86.5
v112h89v-518h-89v263q-20 -23 -49 -34t-61 -11q-26 0 -49 8v-226h-89z" />
    <glyph glyph-name="uni0E5B" unicode="&#xe5b;" horiz-adv-x="872" 
d="M236 70q-88 0 -137.5 49t-49.5 136q0 43 14.5 79t47.5 58t86 22q63 0 98.5 -29.5t35.5 -83.5q0 -26 -8.5 -49.5t-18.5 -37.5l-63 31q5 7 9.5 19.5t4.5 26.5q0 29 -17.5 41.5t-41.5 12.5q-34 0 -48 -25t-14 -60q0 -65 31 -92t78 -27q51 0 83 25.5t47 68t14 94.5h59
l52 -118l31 110h50l39 -101l30 92h43l6 -16q10 -26 17.5 -46t21 -32t42.5 -12q12 0 20.5 2t14.5 5v-60q-8 -5 -19 -8t-26 -3q-69 0 -102 74l-22 -83h-45l-42 108l-32 -118h-49l-42 102q-9 -34 -30 -70t-61.5 -60.5t-106.5 -24.5z" />
    <glyph glyph-name="uni200B" unicode="&#x200b;" 
 />
    <glyph glyph-name="uni200C" unicode="&#x200c;" 
d="M-21 -133v761h42v-761h-42z" />
    <glyph glyph-name="uni200D" unicode="&#x200d;" 
d="M-21 -133v668l-62 -62l-26 27l82 82l-82 81l26 27l83 -83l83 83l26 -27l-82 -81l82 -82l-26 -27l-62 62v-668h-42z" />
    <glyph glyph-name="uni2010" unicode="&#x2010;" horiz-adv-x="322" 
d="M40 229v78h242v-78h-242z" />
    <glyph glyph-name="uni25CC" unicode="&#x25cc;" horiz-adv-x="594" 
d="M297 488q-11 0 -18.5 8t-7.5 18t7.5 18t18.5 8t18.5 -8t7.5 -18t-7.5 -18t-18.5 -8zM213 470q-11 0 -18.5 8t-7.5 18t7.5 18t18.5 8t18.5 -8t7.5 -18t-7.5 -18t-18.5 -8zM381 470q-11 0 -18.5 8t-7.5 18t7.5 18t18.5 8t18.5 -8t7.5 -18t-7.5 -18t-18.5 -8zM455 423
q-11 0 -18.5 7.5t-7.5 18.5t7.5 18.5t18.5 7.5t18.5 -7.5t7.5 -18.5t-7.5 -18.5t-18.5 -7.5zM139 423q-11 0 -18.5 7.5t-7.5 18.5t7.5 18.5t18.5 7.5t18.5 -7.5t7.5 -18.5t-7.5 -18.5t-18.5 -7.5zM92 349q-10 0 -18 7.5t-8 18.5t8 18.5t18 7.5t18 -7.5t8 -18.5t-8 -18.5
t-18 -7.5zM502 349q-10 0 -18 7.5t-8 18.5t8 18.5t18 7.5t18 -7.5t8 -18.5t-8 -18.5t-18 -7.5zM74 265q-10 0 -18 7.5t-8 18.5t8 18.5t18 7.5t18 -7.5t8 -18.5t-8 -18.5t-18 -7.5zM520 265q-10 0 -18 7.5t-8 18.5t8 18.5t18 7.5t18 -7.5t8 -18.5t-8 -18.5t-18 -7.5zM92 181
q-10 0 -18 7.5t-8 18.5t8 18.5t18 7.5t18 -7.5t8 -18.5t-8 -18.5t-18 -7.5zM502 181q-10 0 -18 7.5t-8 18.5t8 18.5t18 7.5t18 -7.5t8 -18.5t-8 -18.5t-18 -7.5zM139 107q-11 0 -18.5 7.5t-7.5 18.5t7.5 18.5t18.5 7.5t18.5 -7.5t7.5 -18.5t-7.5 -18.5t-18.5 -7.5zM455 107
q-11 0 -18.5 7.5t-7.5 18.5t7.5 18.5t18.5 7.5t18.5 -7.5t7.5 -18.5t-7.5 -18.5t-18.5 -7.5zM213 60q-11 0 -18.5 8t-7.5 18t7.5 18t18.5 8t18.5 -8t7.5 -18t-7.5 -18t-18.5 -8zM381 60q-11 0 -18.5 8t-7.5 18t7.5 18t18.5 8t18.5 -8t7.5 -18t-7.5 -18t-18.5 -8zM297 42
q-11 0 -18.5 8t-7.5 18t7.5 18t18.5 8t18.5 -8t7.5 -18t-7.5 -18t-18.5 -8z" />
    <glyph glyph-name="saraUu-thai.small" horiz-adv-x="600" 
d="M94 0v714h411v-714h-411zM145 51h309v612h-309v-612z" />
    <glyph glyph-name="uni0E24.aalt" horiz-adv-x="602" 
d="M194 -9q-28 0 -53.5 9t-41 31t-15.5 61v88q0 58 26.5 85t69.5 37l1 3l-115 39v31q0 39 27 74t77.5 56.5t121.5 21.5q62 0 114 -19t83.5 -58.5t31.5 -102.5v-473h-89v464q0 62 -41 88.5t-100 26.5q-62 0 -98 -23.5t-36 -59.5l114 -50l-8 -46q-37 -1 -63.5 -17.5
t-26.5 -65.5v-90q0 -39 42 -39q21 0 37 6l13 -63q-19 -8 -37 -11t-34 -3z" />
    <glyph glyph-name="uni0E26.aalt" horiz-adv-x="603" 
d="M88 -9q-37 0 -69 14l10 60q7 -1 16 -3t17 -2q30 0 30 37v86q0 57 23 83t66 36l1 3l-115 39v31q0 39 26.5 74t77.5 56.5t122 21.5q61 0 113.5 -19t84 -58.5t31.5 -102.5v-473h-89v464q0 62 -41.5 88.5t-99.5 26.5q-62 0 -98 -23.5t-36 -59.5l114 -50l-8 -46
q-38 0 -60.5 -22t-22.5 -72v-90q0 -58 -27 -78.5t-66 -20.5z" />
    <glyph glyph-name="doChada-thai.short" horiz-adv-x="603" 
d="M123 -126v6q0 54 38.5 82.5t108.5 28.5q50 0 91.5 -13t71.5 -34v394q0 62 -41.5 88.5t-100.5 26.5q-61 0 -97 -23.5t-36 -59.5l114 -50l-8 -46q-38 0 -60.5 -22t-22.5 -72v-90q0 -58 -27 -78t-67 -20q-36 0 -68 14l10 61q7 -2 16 -4t17 -2q30 0 30 37v85q0 57 23 83
t66 36l1 3l-115 40v30q0 39 26.5 74t77.5 56.5t122 21.5q61 0 113.5 -19t84 -58.5t31.5 -102.5v-473h-80q-22 25 -64 40.5t-83 15.5q-44 0 -62.5 -16.5t-18.5 -34.5v-5h-91z" />
    <glyph glyph-name="toPatak-thai.short" horiz-adv-x="603" 
d="M76 -126v8q0 54 35 78t80 24q44 0 72.5 -18t38.5 -36l64 49l67 -39v398q0 62 -41.5 88.5t-100.5 26.5q-61 0 -97 -23.5t-36 -59.5l114 -50l-8 -46q-38 0 -60.5 -22t-22.5 -72v-90q0 -58 -27 -78t-67 -20q-36 0 -68 14l10 61q7 -2 16 -4t17 -2q30 0 30 37v85q0 57 23 83
t66 36l1 3l-115 40v30q0 39 26.5 74t77.5 56.5t122 21.5q61 0 113.5 -19t84 -58.5t31.5 -102.5v-473h-80l-74 41l-52 -41h-35q-23 46 -72 46q-25 0 -37 -13t-12 -30v-3h-84z" />
    <glyph glyph-name="yoYing-thai.less" horiz-adv-x="891" 
d="M607 -10q-105 0 -154 47t-49 144v159q0 44 -18 69t-46.5 35t-61.5 10q-53 0 -86.5 -21.5t-34.5 -62.5l114 -50l-8 -46q-37 0 -63.5 -21t-26.5 -71v-80q0 -22 10 -31t32 -9q21 0 37 6l13 -63q-19 -8 -37 -11t-34 -3q-28 0 -53.5 9t-41 31t-15.5 61v88q0 58 26.5 85
t69.5 37l1 3l-115 40v30q0 42 26 76.5t74 55t113 20.5q55 0 103.5 -17.5t79 -56.5t30.5 -104v-170q0 -62 30 -88.5t85 -26.5q54 0 84 26.5t30 88.5v338h89v-336q0 -97 -49 -144t-154 -47z" />
    <glyph glyph-name="thoThan-thai.less" horiz-adv-x="547" 
d="M143 0v229h-76v68h161v-226h13q67 0 101 43.5t34 145.5q0 104 -38 148.5t-130 44.5q-47 0 -90.5 -11.5t-83.5 -36.5v82q30 17 79 28.5t106 11.5q95 0 143 -37q23 7 42 21.5t19 39.5h87q0 -42 -28.5 -69t-69.5 -38q30 -30 42.5 -76.5t12.5 -108.5q0 -124 -54 -191.5
t-186 -67.5h-84z" />
    <glyph glyph-name="loChula-thai.short" horiz-adv-x="649" 
d="M115 0l-74 517h90l30 -225q7 -50 10.5 -90t6.5 -92h4q8 29 22 67.5t37 94.5l46 117h68l50 -116q12 -27 30.5 -73t35.5 -99h5q6 62 12.5 103t13.5 82l9 57q7 41 -5.5 64t-59.5 23h-56v63h92q38 0 47.5 15t12.5 43h89q1 -37 -19 -65t-69 -35v-4q36 -11 46 -38.5t4 -61.5
l-63 -347h-87l-76 184q-14 34 -24.5 67t-17.5 64h-4q-7 -31 -17.5 -64t-24.5 -67l-76 -184h-88z" />
    <glyph glyph-name="macronbelowcomb.alt" 
d="M-120 -76v-71h-571v71h571z" />
    <glyph glyph-name="uni0E31.aalt" 
d="M-383 605q-62 0 -88 25.5t-26 57.5q0 15 4 32.5t11 28.5l75 -13q-2 -4 -3.5 -13.5t-1.5 -17.5q0 -13 8 -22.5t27 -9.5h151v-68h-157z" />
    <glyph glyph-name="glyph99" 
d="M-173 817v163h85v-163h-85z" />
    <glyph glyph-name="glyph100" 
d="M-344 605v211h88v-211h-88z" />
    <glyph glyph-name="glyph102" 
d="M-258 817v35q20 4 42.5 15t22.5 34t-23 23q-16 0 -33 -10l-18 46q18 12 40.5 16t35.5 4q26 0 47 -14t21 -45q0 -8 -2 -18t-7 -19h126v-67h-252z" />
    <glyph glyph-name="glyph103" 
d="M-494 605v44q18 4 38 11.5t33.5 19.5t13.5 30q0 30 -29 30q-11 0 -21.5 -4t-18.5 -7l-21 55q21 16 45 21t41 5q39 0 62 -22t23 -58q0 -15 -5 -29.5t-17 -25.5h122v-70h-266z" />
    <glyph glyph-name="glyph105" 
d="M-209 813q-40 0 -60.5 24.5t-20.5 58.5t23 59t68 25l51 -34l46 34q34 0 62.5 -16t28.5 -50q0 -26 -12 -41h67v-56h-152v39q16 2 26.5 12t10.5 26q0 30 -32 35l-43 -28h-5l-45 28q-33 -3 -33 -34q0 -14 8 -23.5t25 -9.5q4 0 10 1t10 2l8 -43q-7 -4 -17.5 -6.5t-23.5 -2.5z
" />
    <glyph glyph-name="glyph106" 
d="M-455 600q-49 0 -75.5 27.5t-26.5 74.5q0 48 25.5 74.5t72.5 31.5l46 -36l46 36q53 -5 76.5 -30.5t23.5 -60.5q0 -26 -12 -46h72v-66h-167v42q17 6 28.5 18.5t11.5 34.5q0 24 -12 36t-26 14l-38 -30h-6l-38 30q-14 -2 -26 -14.5t-12 -34.5q0 -19 11 -34t34 -15q5 0 13 1
t15 4l12 -47q-17 -10 -48 -10z" />
    <glyph glyph-name="glyph108" 
d="M-168 817v51h-58v61h58v51h75v-51h58v-61h-58v-51h-75z" />
    <glyph glyph-name="glyph110" 
d="M-223 787q-7 11 -11.5 29t-4.5 34q0 22 9 40.5t32.5 30.5t65.5 12h125v-68h-103q-45 0 -45 -33q0 -16 8 -32z" />
    <glyph glyph-name="glyph111" 
d="M-450 576q-7 10 -11.5 28t-4.5 35q0 31 22 56.5t83 25.5h135v-69h-112q-44 0 -44 -33q0 -15 8 -31z" />
    <glyph glyph-name="uni0E47.aalt" 
d="M-317 590q-54 0 -78 46l-34 -43q-58 0 -91 28.5t-33 82.5q0 57 33.5 84.5t77.5 27.5h214v-60h-201q-23 0 -38.5 -13t-15.5 -42q0 -21 11 -35t37 -14l40 50h25q2 -53 41 -53q17 0 27.5 11.5t10.5 29.5v12h64v-14q0 -50 -24.5 -74t-65.5 -24z" />
    <glyph glyph-name="uni0E34.aalt" 
d="M-574 605v39l72 32h274v-71h-346z" />
    <glyph glyph-name="uni0E35.aalt" 
d="M-574 605v39l72 31h191v79h83v-149h-346z" />
    <glyph glyph-name="uni0E36.aalt" 
d="M-574 605v39l72 31h115q-1 6 -1 13q0 39 25 62.5t69 23.5t69.5 -24t25.5 -62q0 -36 -23.5 -59.5t-66.5 -23.5h-285zM-293 648q20 0 31 11.5t11 29.5q0 19 -11.5 30t-31.5 11q-21 0 -32 -11t-11 -30q0 -17 10.5 -29t33.5 -12z" />
    <glyph glyph-name="uni0E37.aalt" 
d="M-574 605v39l72 31h70v79h72v-79h61v79h72v-79h1v-70h-348z" />
    <glyph glyph-name="nikhahit_maiEk-thai" 
d="M-160 582q-50 0 -79 23.5t-29 66.5t29 66.5t79 23.5t80 -23.5t30 -66.5t-30 -66.5t-80 -23.5zM-160 629q24 0 36.5 12t12.5 31t-12.5 31t-36.5 12q-23 0 -35.5 -12t-12.5 -31t12.5 -31t35.5 -12zM-202 818v163h85v-163h-85z" />
    <glyph glyph-name="nikhahit_maiTho-thai" 
d="M-160 582q-50 0 -79 23.5t-29 66.5t29 66.5t79 23.5t80 -23.5t30 -66.5t-30 -66.5t-80 -23.5zM-160 629q24 0 36.5 12t12.5 31t-12.5 31t-36.5 12q-23 0 -35.5 -12t-12.5 -31t12.5 -31t35.5 -12zM-287 818v35q20 4 42.5 15t22.5 34t-23 23q-16 0 -33 -10l-18 46
q18 12 40.5 16t35.5 4q26 0 47 -14t21 -45q0 -8 -2 -18t-7 -19h126v-67h-252z" />
    <glyph glyph-name="nikhahit_maiTri-thai" 
d="M-160 582q-50 0 -79 23.5t-29 66.5t29 66.5t79 23.5t80 -23.5t30 -66.5t-30 -66.5t-80 -23.5zM-160 629q24 0 36.5 12t12.5 31t-12.5 31t-36.5 12q-23 0 -35.5 -12t-12.5 -31t12.5 -31t35.5 -12zM-238 814q-40 0 -60.5 24.5t-20.5 58.5t23 59t68 25l51 -34l46 34
q34 0 62.5 -16t28.5 -50q0 -26 -12 -41h67v-56h-152v39q16 2 26.5 12t10.5 26q0 30 -32 35l-43 -28h-5l-45 28q-33 -3 -33 -34q0 -14 8 -23.5t25 -9.5q4 0 10 1t10 2l8 -43q-7 -4 -17.5 -6.5t-23.5 -2.5z" />
    <glyph glyph-name="nikhahit_maiChattawa-thai" 
d="M-160 582q-50 0 -79 23.5t-29 66.5t29 66.5t79 23.5t80 -23.5t30 -66.5t-30 -66.5t-80 -23.5zM-160 629q24 0 36.5 12t12.5 31t-12.5 31t-36.5 12q-23 0 -35.5 -12t-12.5 -31t12.5 -31t35.5 -12zM-197 818v51h-58v61h58v51h75v-51h58v-61h-58v-51h-75z" />
    <glyph glyph-name="uni0E3A.aalt" 
d="M-131 -255q-31 0 -49.5 14t-18.5 41q0 28 18.5 41.5t49.5 13.5t49.5 -13.5t18.5 -41.5q0 -27 -18.5 -41t-49.5 -14z" />
    <glyph glyph-name="uni0E38.aalt" 
d="M-160 -261v26q0 25 -22 25q-5 0 -10.5 -1t-10.5 -3l-7 60q15 5 32.5 7.5t28.5 2.5q35 0 51.5 -17t16.5 -45v-55h-79z" />
    <glyph glyph-name="uni0E39.aalt" 
d="M-217 -265q-73 0 -98.5 16t-25.5 37v6q0 15 -22 11l-5 49q11 2 21.5 3t18.5 1q64 0 64 -41v-4q0 -16 11 -23t39 -7q32 0 44 9t12 26v37h78v-42q0 -41 -32 -59.5t-105 -18.5z" />
    <glyph glyph-name="maiChattawa-thai.narrow" 
d="M-383 605v72h-76v64h76v75h75v-75h77v-64h-77v-72h-75z" />
    <glyph glyph-name="nikhahit-thai.narrow" 
d="M-337 581q-50 0 -79 23.5t-29 66.5t29 66.5t79 23.5t80 -23.5t30 -66.5t-30 -66.5t-80 -23.5zM-337 628q24 0 36.5 12t12.5 31t-12.5 31t-36.5 12q-23 0 -35.5 -12t-12.5 -31t12.5 -31t35.5 -12z" />
    <glyph glyph-name="nikhahit_maiEk-thai.narrow" 
d="M-320 582q-50 0 -79 23.5t-29 66.5t29 66.5t79 23.5t80 -23.5t30 -66.5t-30 -66.5t-80 -23.5zM-320 629q24 0 36.5 12t12.5 31t-12.5 31t-36.5 12q-23 0 -35.5 -12t-12.5 -31t12.5 -31t35.5 -12zM-362 818v163h85v-163h-85z" />
    <glyph glyph-name="nikhahit_maiTho-thai.narrow" 
d="M-319 582q-50 0 -79 23.5t-29 66.5t29 66.5t79 23.5t80 -23.5t30 -66.5t-30 -66.5t-80 -23.5zM-319 629q24 0 36.5 12t12.5 31t-12.5 31t-36.5 12q-23 0 -35.5 -12t-12.5 -31t12.5 -31t35.5 -12zM-446 818v35q20 4 42.5 15t22.5 34t-23 23q-16 0 -33 -10l-18 46
q18 12 40.5 16t35.5 4q26 0 47 -14t21 -45q0 -8 -2 -18t-7 -19h126v-67h-252z" />
    <glyph glyph-name="nikhahit_maiTri-thai.narrow" 
d="M-320 582q-50 0 -79 23.5t-29 66.5t29 66.5t79 23.5t80 -23.5t30 -66.5t-30 -66.5t-80 -23.5zM-320 629q24 0 36.5 12t12.5 31t-12.5 31t-36.5 12q-23 0 -35.5 -12t-12.5 -31t12.5 -31t35.5 -12zM-398 814q-40 0 -60.5 24.5t-20.5 58.5t23 59t68 25l51 -34l46 34
q34 0 62.5 -16t28.5 -50q0 -26 -12 -41h67v-56h-152v39q16 2 26.5 12t10.5 26q0 30 -32 35l-43 -28h-5l-45 28q-33 -3 -33 -34q0 -14 8 -23.5t25 -9.5q4 0 10 1t10 2l8 -43q-7 -4 -17.5 -6.5t-23.5 -2.5z" />
    <glyph glyph-name="nikhahit_maiChattawa-thai.narrow" 
d="M-319 582q-50 0 -79 23.5t-29 66.5t29 66.5t79 23.5t80 -23.5t30 -66.5t-30 -66.5t-80 -23.5zM-319 629q24 0 36.5 12t12.5 31t-12.5 31t-36.5 12q-23 0 -35.5 -12t-12.5 -31t12.5 -31t35.5 -12zM-356 818v51h-58v61h58v51h75v-51h58v-61h-58v-51h-75z" />
    </font>
</defs>
</svg>
